.
Авторизация | Регистрация
» » Крид: Наследие Рокки / Creed (2015) BDRip 1080p от ExKinoRay | Лицензия скачать торрент бесплатно




    Крид: Наследие Рокки / Creed (2015) BDRip 1080p от ExKinoRay | Лицензия скачать торрент бесплатно

    Опубликовал: Админ | Дата: 6-05-2016, 17:23 | Просмотров: 74



    Детально о кино
    Русское название: Крид: Наследие Рокки
    Русское название в мировом прокате: Creed
    Создали в: 2015
    Категория жанра: Драма, спорт
    Главный режиссер: Райан Куглер

    Актеры
    Майкл Б. Джордан, Сильвестр Сталлоне, Тесса Томпсон, Филисия Рашад, Андре Уорд, Тони Белью, Ричи Костер, Джейкоб ’Стич’ Дюран, Грэм МакТавиш, Вуд Харрис, Брайан Энтони Уилсон, Джои Эй, Кэш Гойнс, Кевин Кинг Темплтон, Лерой Уилсон мл., Маурицио Овейлл, Марк Смит, Джосу Ривера, Ганс Марреро, Мэнни Айала

    Сюжет фильма

    Адонис Джонсон бросает престижную работу в фешенебельном офисе и с головой окунается в прелести боксерских поединков, повинуясь зову генетической памяти. Он - внебрачный сын Аполло Крида, ставшего первым серьезным испытанием на боксерском ринге для Рокки Бальбоа и, впоследствии, его лучшим другом. Молодой человек обращается за помощью к легендарному ветерану, который вовсе не горит желанием возвращаться в слегка подзабытый мир профессионального бокса в качестве тренера и наставника.

    Снималось в: США
    Киностудия: Chartoff-Winkler Productions, Metro-Goldwyn-Mayer (MGM), New Line Cinema, Warner Bros. Pictures
    Время просмотра: 02: 13: 10
    Перевод текста: Дублированный | Лицензия (Blu-Ray CEE)
    Файл
    Кодек для видео: MPEG-4
    Качество фильма: BDRip 1080p
    Информация о видео: 1920x800, 14.1 Mbit/s, 23.976 fps
    Информация о звуке:
    Информация о звуке #1: 48.0 Khz, АС3, 5.1, 640 Kbps | Дублированный, Лицензия (Blu-Ray CEE) |
    Информация о звуке #2: 48.0 Khz, DTS, 5.1, 1510 Kbps | Оригинал |
    Субтитры: Русские, английские
    Релиз подготовил: Автор релиза:

    MI
    Общее
    Уникальный идентификатор : 221290643560067321999706726030929776675 (0xA67B071654EE323D8DD5D4B26BF35023)
    Полное имя : F: VideocreedCreed..2015..BDRip.1080p.ExKinoRay.mkv
    Формат : Matroska
    Версия формата : Version 4/Version 2
    Размер файла : 15, 1 Гбайт
    Продолжительность : 2 ч. 13 м.
    Общий поток : 16, 2 Мбит/сек
    Название фильма : Creed..2015..BDRip.1080p.ExKinoRay
    Дата кодирования : UTC 2016-05-05 06: 12: 16
    Программа кодирования : mkvmerge v8.3.0 (;Over the Horizon;) 64bit
    Библиотека кодирования : libebml v1.3.1 + libmatroska v1.4.2
    Видео
    Идентификатор : 1
    Формат : AVC
    Формат/Информация : Advanced Video Codec
    Профиль формата : High@L4.1
    Параметр CABAC формата : Да
    Параметр ReFrames формата : 5 кадров
    Идентификатор кодека : V_MPEG4/ISO/AVC
    Продолжительность : 2 ч. 13 м.
    Битрейт : 14, 1 Мбит/сек
    Ширина : 1920 пикселей
    Высота : 800 пикселей
    Соотношение сторон : 2, 40: 1
    Режим частоты кадров : Постоянный
    Частота кадров : 23, 976 (24000/1001) кадра/сек
    Цветовое пространство : YUV
    Субдискретизация насыщенности : 4: 2: 0
    Битовая глубина : 8 бит
    Тип развёртки : Прогрессивная
    Бит/(Пиксели*Кадры) : 0.382
    Размер потока : 13, 1 Гбайт (87%)
    Заголовок : Creed..2015..BDRip.1080p.ExKinoRay.***селезень***
    Библиотека кодирования : x264 core 148 r2665kMod a01e339
    Настройки программы : cabac=1/ref=5/deblock=1: -3: -3/analyse=0x3: 0x133/me=umh/subme=11/psy=1/fade_compensate=0.00/psy_rd=1.00: 0.00/mixed_ref=1/me_range=32/chroma_me=1/trellis=2/8x8dct=1/cqm=0/deadzone=21, 11/fast_pskip=0/chroma_qp_offset=-2/threads=12/lookahead_threads=2/sliced_threads=0/nr=0/decimate=1/interlaced=0/bluray_compat=0/constrained_intra=0/fgo=0/bframes=9/b_pyramid=2/b_adapt=2/b_bias=0/direct=3/weightb=1/open_gop=0/weightp=2/keyint=250/keyint_min=23/scenecut=40/intra_refresh=0/rc_lookahead=60/rc=crf/mbtree=0/crf=17.3000/qcomp=0.65/qpmin=0/qpmax=69/qpstep=4/vbv_maxrate=62500/vbv_bufsize=78125/crf_max=0.0/nal_hrd=none/filler=0/ip_ratio=1.30/pb_ratio=1.20/aq=3: 0.80
    Язык : English
    Default : Да
    Forced : Нет
    Цветовой диапазон : Limited
    Коэффициенты матрицы : BT.709
    Аудио #1
    Идентификатор : 2
    Формат : AC-3
    Формат/Информация : Audio Coding 3
    Расширение режима : CM (complete main)
    Параметр Endianness формата : Big
    Идентификатор кодека : A_AC3
    Продолжительность : 2 ч. 13 м.
    Вид битрейта : Постоянный
    Битрейт : 640 Кбит/сек
    Каналы : 6 каналов
    Расположение каналов : Front: L C R, Side: L R, LFE
    Частота : 48, 0 КГц
    Частота кадров : 31, 250 кадров/сек (1536 spf)
    Метод сжатия : С потерями
    Размер потока : 610 Мбайт (4%)
    Заголовок : DUB License, Blu-ray CEE
    Язык : Russian
    Default : Да
    Forced : Нет
    Аудио #2
    Идентификатор : 3
    Формат : DTS
    Формат/Информация : Digital Theater Systems
    Режим : 16
    Параметр Endianness формата : Big
    Идентификатор кодека : A_DTS
    Продолжительность : 2 ч. 13 м.
    Вид битрейта : Постоянный
    Битрейт : 1509 Кбит/сек
    Каналы : 6 каналов
    Расположение каналов : Front: L C R, Side: L R, LFE
    Частота : 48, 0 КГц
    Частота кадров : 93, 750 кадра/сек (512 spf)
    Битовая глубина : 24 бит
    Метод сжатия : С потерями
    Размер потока : 1, 40 Гбайт (9%)
    Язык : English
    Default : Нет
    Forced : Нет
    Текст #1
    Идентификатор : 4
    Формат : UTF-8
    Идентификатор кодека : S_TEXT/UTF8
    Идентификатор кодека/Информация : UTF-8 Plain Text
    Продолжительность : 2 ч. 12 м.
    Битрейт : 3 бит/сек
    Count of elements : 78
    Размер потока : 3, 67 Кбайт (0%)
    Заголовок : Forced
    Язык : Russian
    Default : Да
    Forced : Нет
    Текст #2
    Идентификатор : 5
    Формат : UTF-8
    Идентификатор кодека : S_TEXT/UTF8
    Идентификатор кодека/Информация : UTF-8 Plain Text
    Продолжительность : 2 ч. 12 м.
    Битрейт : 102 бит/сек
    Count of elements : 2130
    Размер потока : 99, 6 Кбайт (0%)
    Заголовок : iTunes
    Язык : Russian
    Default : Нет
    Forced : Нет
    Текст #3
    Идентификатор : 6
    Формат : UTF-8
    Идентификатор кодека : S_TEXT/UTF8
    Идентификатор кодека/Информация : UTF-8 Plain Text
    Продолжительность : 2 ч. 11 м.
    Битрейт : 69 бит/сек
    Count of elements : 2092
    Размер потока : 66, 6 Кбайт (0%)
    Язык : English
    Default : Нет
    Forced : Нет
    Текст #4
    Идентификатор : 7
    Формат : UTF-8
    Идентификатор кодека : S_TEXT/UTF8
    Идентификатор кодека/Информация : UTF-8 Plain Text
    Продолжительность : 2 ч. 11 м.
    Битрейт : 74 бит/сек
    Count of elements : 2209
    Размер потока : 71, 5 Кбайт (0%)
    Заголовок : SDH
    Язык : English
    Default : Нет
    Forced : Нет
    Меню
    00: 00: 00.000 : en: 00: 00: 00.000
    00: 09: 14.387 : en: 00: 09: 14.387
    00: 22: 06.742 : en: 00: 22: 06.742
    00: 31: 31.932 : en: 00: 31: 31.932
    00: 41: 34.659 : en: 00: 41: 34.659
    00: 52: 18.010 : en: 00: 52: 18.010
    01: 01: 32.063 : en: 01: 01: 32.063
    01: 09: 13.941 : en: 01: 09: 13.941
    01: 19: 00.986 : en: 01: 19: 00.986
    01: 25: 13.650 : en: 01: 25: 13.650
    01: 32: 27.792 : en: 01: 32: 27.792
    01: 41: 16.445 : en: 01: 41: 16.445
    01: 50: 14.441 : en: 01: 50: 14.441
    02: 01: 07.719 : en: 02: 01: 07.719
    02: 06: 34.962 : en: 02: 06: 34.962
    Скриншоты


    Онлайн видео Крид: Наследие Рокки


    Размер скачиваемого торрента: 15.09 GB (16202972202 Bytes)

    Крид: Наследие Рокки/Creed (2015) BDRip 1080p от ExKinoRay | Лицензия
    загрузка...
    Рейтинг →
     (голосов: 1, оценка 5/5, голосовать можно 1 раз )

    Другие торренты по теме:

  • Крид: Наследие Рокки / Creed (2015) DVDScr | Звук с CamRip скачать торрент бесплатно
  • Крид: Наследие Рокки / Creed (2015) HDRip-AVC | P | IDEAFILM скачать торрент бесплатно
  • Крид: Наследие Рокки / Creed (2015) BDRemux | IDEAFILM скачать торрент бесплатно
  • Крид: Наследие Рокки / Creed (2015) BDRip 720p | iTunes скачать торрент бесплатно
  • Крид: Наследие Рокки / Creed (2015) BDRip 720p от Scarabey | iTunes, P скачать торрент бесплатно
  • Крид: Наследие Рокки / Creed (2015) BDRip-AVC от New-Team | Лицензия скачать торрент бесплатно
  • Крид: Наследие Рокки / Creed (2015) HDRip от Scarabey | Лицензия скачать торрент бесплатно
  • Крид: Наследие Рокки / Creed (2015) скачать торрент бесплатно


    • Комментарии (0):

      Информация

      Информация

        Посетители, находящиеся в группе Гости, не могут оставлять комментарии в данной новости.

        ↓ Меню



        ↓ Опрос

        А Вы добавили сайт в закладки?
        Да
        Не


        Top 10 за неделю (Фильмы)