.
Авторизация | Регистрация
Хочешь лучшие торренты? Добавь свой email!
Добавить
» » Незабываемое / Unforgettable (1996) BDRip-AVC от NNMClub | P, A торрент скачать бесплатно




    Незабываемое / Unforgettable (1996) BDRip-AVC от NNMClub | P, A торрент скачать бесплатно

    Опубликовал: Админ | Дата: 6-05-2016, 17:23 | Просмотров: 71




    Создали в: США, Metro-Goldwyn-Mayer (MGM)
    Категория жанра: Фантастика, Триллер, Детектив, Драма
    Главный режиссер: Джон Дал
    Актеры: Рэй Лиотта, Линда Фиорентино, Питер Койот, Кристофер МакДональд, Дэвид Пэймер, Дункан Фрайзер, Кэролайн Эллиотт, Коллин Реннисон, Ким Кэтролл, Стеллина Русиш идр.

    Описание фильма

    Жена Дэвида Крэйна убита, а сам Дэвид в состоянии алкогольного опьянения находился рядом, где и был задержан полицией. Из-за отсутствия улик против него, суд снял с Дэвида обвинение в убийстве, но при этом лишил его права воспитывать детей. Чтобы найти убийцу Дэвид принимает решение стать подопытной крысой. Дело в том, что, если ввести себе спинномозговую жидкость мертвого человека, то можно видеть произошедшее перед смертью его глазами...

    Возраст: 16+(зрителям, достигшим 16 лет)
    Рейтинг MPAA: R(лицам до 17 лет обязательно присутствие взрослого)
    Качество фильма видео: BDRip-AVC
    Перевод текста: Профессиональный многоголосый, авторский
    Субтитры: Русские, английские
    Информация о видео: AVC, 1024x556 (16: 9), 23.976 fps, 2 278 Kbps (0.167 bit/pixel)
    Информация о звуке #1: AC-3, 48.0 KHz, 6 ch, 384 Kbps, CBR (Russian) - многоголосый
    Информация о звуке #2: AC-3, 48.0 KHz, 6 ch, 448 Kbps, CBR (Russian) - авторский П.Карцев
    Информация о звуке #3: AC-3, 48.0 KHz, 6 ch, 384 Kbps, CBR (English) - оригинал
    Mediainfo:
    Формат : Matroska
    Версия формата : Version 2
    Размер файла : 2, 85 Гбайт
    Продолжительность : 1 ч. 56 м.
    Общий поток : 3494 Кбит/сек
    Дата кодирования : UTC 2016-05-05 01: 55: 03
    Программа кодирования : mkvmerge v5.3.0 (;I could have danced;) built on Feb 9 2012 10: 38: 07
    Библиотека кодирования : libebml v1.2.3 + libmatroska v1.3.0
    Attachment : Yes
    Видео
    Идентификатор : 1
    Формат : AVC
    Формат/Информация : Advanced Video Codec
    Профиль формата : High@L4.1
    Параметр CABAC формата : Да
    Параметр ReFrames формата : 11 кадров
    Идентификатор кодека : V_MPEG4/ISO/AVC
    Продолжительность : 1 ч. 56 м.
    Битрейт : 2278 Кбит/сек
    Ширина : 1024 пикселя
    Высота : 556 пикселей
    Соотношение сторон : 1, 85: 1
    Режим частоты кадров : Постоянный
    Частота кадров : 23, 976 кадра/сек
    Цветовое пространство : YUV
    Субдискретизация насыщенности : 4: 2: 0
    Битовая глубина : 8 бит
    Тип развёртки : Прогрессивная
    Бит/(Пиксели*Кадры) : 0.167
    Размер потока : 1, 80 Гбайт (63%)
    Библиотека кодирования : x264 core 146 r2538 121396c
    Настройки программы : cabac=1/ref=11/deblock=1: -3: -3/analyse=0x3: 0x133/me=umh/subme=10/psy=1/psy_rd=1.00: 0.10/mixed_ref=1/me_range=32/chroma_me=1/trellis=2/8x8dct=1/cqm=0/deadzone=21, 11/fast_pskip=0/chroma_qp_offset=-3/threads=12/lookahead_threads=2/sliced_threads=0/nr=0/decimate=0/interlaced=0/bluray_compat=0/constrained_intra=0/bframes=8/b_pyramid=2/b_adapt=2/b_bias=0/direct=3/weightb=1/open_gop=0/weightp=2/keyint=240/keyint_min=23/scenecut=40/intra_refresh=0/rc=2pass/mbtree=0/bitrate=2278/ratetol=1.0/qcomp=0.60/qpmin=0/qpmax=69/qpstep=4/cplxblur=20.0/qblur=0.5/ip_ratio=1.40/pb_ratio=1.30/aq=1: 0.70
    Default : Да
    Forced : Нет
    Аудио #1
    Идентификатор : 2
    Формат : AC-3
    Формат/Информация : Audio Coding 3
    Расширение режима : CM (complete main)
    Параметр Endianness формата : Big
    Идентификатор кодека : A_AC3
    Продолжительность : 1 ч. 56 м.
    Вид битрейта : Постоянный
    Битрейт : 384 Кбит/сек
    Каналы : 6 каналов
    Расположение каналов : Front: L C R, Side: L R, LFE
    Частота : 48, 0 КГц
    Битовая глубина : 16 бит
    Метод сжатия : С потерями
    Размер потока : 321 Мбайт (11%)
    Заголовок : Многоголосый закадровый
    Язык : Russian
    Default : Да
    Forced : Нет
    Аудио #2
    Идентификатор : 3
    Формат : AC-3
    Формат/Информация : Audio Coding 3
    Расширение режима : CM (complete main)
    Параметр Endianness формата : Big
    Идентификатор кодека : A_AC3
    Продолжительность : 1 ч. 56 м.
    Вид битрейта : Постоянный
    Битрейт : 448 Кбит/сек
    Каналы : 6 каналов
    Расположение каналов : Front: L C R, Side: L R, LFE
    Частота : 48, 0 КГц
    Битовая глубина : 16 бит
    Метод сжатия : С потерями
    Размер потока : 374 Мбайт (13%)
    Заголовок : авторский П.Карцев
    Язык : Russian
    Default : Нет
    Forced : Нет
    Аудио #3
    Идентификатор : 4
    Формат : AC-3
    Формат/Информация : Audio Coding 3
    Расширение режима : CM (complete main)
    Параметр Endianness формата : Big
    Идентификатор кодека : A_AC3
    Продолжительность : 1 ч. 56 м.
    Вид битрейта : Постоянный
    Битрейт : 384 Кбит/сек
    Каналы : 6 каналов
    Расположение каналов : Front: L C R, Side: L R, LFE
    Частота : 48, 0 КГц
    Битовая глубина : 16 бит
    Метод сжатия : С потерями
    Размер потока : 321 Мбайт (11%)
    Язык : English
    Default : Нет
    Forced : Нет
    Текст #1
    Идентификатор : 5
    Формат : UTF-8
    Идентификатор кодека : S_TEXT/UTF8
    Идентификатор кодека/Информация : UTF-8 Plain Text
    Язык : Russian
    Default : Нет
    Forced : Нет
    Текст #2
    Идентификатор : 6
    Формат : UTF-8
    Идентификатор кодека : S_TEXT/UTF8
    Идентификатор кодека/Информация : UTF-8 Plain Text
    Язык : English
    Default : Нет
    Forced : Нет
    Меню
    00: 00: 00.000 : : Chapter 01
    00: 09: 55.094 : : Chapter 02
    00: 23: 30.534 : : Chapter 03
    00: 41: 35.534 : : Chapter 04
    00: 56: 45.652 : : Chapter 05
    01: 09: 40.091 : : Chapter 06
    01: 25: 04.099 : : Chapter 07
    01: 36: 02.296 : : Chapter 08

    Скриншоты:


    Онлайн видео Незабываемое


    Размер скачиваемого торрента: 2.85 GB (3060442530 Bytes)

    Незабываемое/Unforgettable (1996) BDRip-AVC от NNMClub | P, A
    загрузка...
    Рейтинг →
     (голосов: 1, оценка 3/5, голосовать можно 1 раз )

    Другие торренты по теме:

  • Незабываемое / Unforgettable (1996) DVDRip | Р
  • Помнить все / Незабываемое / Unforgettable (2013) HDTVRip | napaBo3uk
  • Помнить все / Незабываемое / Unforgettable (2013-2014) WEB-DLRip 720p, HDTVRip 720p | SET, NewStudio
  • Помнить все / Незабываемое / Unforgettable (2013-2014) WEB-DLRip, HDTVRip | SET, NewStudio
  • Помнить все / Незабываемое / Unforgettable (2014) WEB-DLRip от MediaClub | P | SET
  • Помнить все / Незабываемое / Unforgettable (2014) WEB-DL 720p от MediaClub | P | SET
  • Помнить всё (Незабываемое) / Unforgettable
  • Помнить всё / Незабываемое / Unforgettable (2014) HDTVRip 720p от Brazzass | Sub скачать через торрент бесплатно


    • Комментарии (0):

      Информация

      Информация

        Посетители, находящиеся в группе Гости, не могут оставлять комментарии в данной новости.

        ↓ Меню



        ↓ Опрос

        А Вы добавили сайт в закладки?
        Да
        Не


        Top 10 за месяц (Фильмы)