.
Авторизация | Регистрация
» » Вторые. Отряд Кочубея (2009) DVDRip от New-Team скачать торрент бесплатно




    Вторые. Отряд Кочубея (2009) DVDRip от New-Team скачать торрент бесплатно

    Опубликовал: Админ | Дата: 6-05-2016, 17:24 | Просмотров: 125



    Создали в: 2009
    Снималось в: Россия
    Киностудия: Телеостров
    Категория жанра: драма, военный
    Время просмотра: 8 серий ~ по 44-45 мин.
    Перевод текста: не требуется
    Субтитры: нет
    Оригинальная аудиодорожка: русский
    Главный режиссер: Александр Даруга

    Актеры

    Владимир Стеклов, Игорь Лагутин, Анатолий Пашинин, Александр Сирин, Алексей Воробьёв, Нина Гусева, Владимир Зайцев, Александр Пашутин, Сергей Греков, Михаил Левченко, Алексей Даруга, Максим Литовченко, Максим Лагашкин, Александр Робак, Сергей Чирков, Алексей Маслов, Дмитрий Муляр, Сергей Удовик, Кирилл Гребенщиков, Максим Дрозд, Ольга Стрелецкая, Александр Баширов, Елена Казаринова...
    Полный список актёров
    Описание:
    Август 1941 года. Немецкие войска в трёхстах километрах от Москвы. На одном из маршрутов следования первых лиц государства сотрудники Четвёртого управления НКВД обезвреживают группу немецких диверсантов, целью которой являлось физическое устранение Сталина. В момент задержания группы, диверсанты применяют неизвестное оружие панцеркнакке, по силе действия схожее с реактивным снарядом. При задержании одному из диверсантов удается уйти, двое других – убиты, стрелявшего удалось задержать, но оружие взорвалось в момент выстрела. Как немецким диверсантам удалось так близко подойти к секретной информации о маршрутах передвижения первых лиц государства? Где находится школа подготовки диверсионной группы? Для этой цели формируется две группы. Первая должна тайно пройти по тылам противника и выйти в указанный, взятым в плен диверсантом, адрес. О существовании этой группы знают только двое - Мирзоев и Алёхин. А задание Второй группы – двигаясь по тылам противника, действовать так, чтобы отвлекать внимание немецкой разведки от группы Первых.



    Исходник: DVD9 R5
    Качество фильма видео: DVDRip
    Тип видео видео: AVI
    Информация о видео: 704х400 (16: 9), 25 fps, XviD ~ 1527 kbps avg, 0.217 bit/pixel
    Информация о звуке: 48 kHz, Dolby Digital AC3 2.0, 192 kbps
    Раздача от:
    MediaInfo

    Общее
    Полное имя : Vtorye.Otryad.Kochubeya.2009.DVDRip_New-team_by_AVP_Studio.avi
    Формат : AVI
    Формат/Информация : Audio Video Interleave
    Размер файла : 551 Мбайт
    Продолжительность : 44 м.
    Общий поток : 1728 Кбит/сек
    Программа кодирования : VirtualDubMod 1.5.10.3 | www.virtualdub-fr.org || (build 2550/release)
    Библиотека кодирования : VirtualDubMod build 2550/release
    Видео
    Идентификатор : 0
    Формат : MPEG-4 Visual
    Профиль формата : Advanced Simple@L5
    Параметр BVOP формата : 1
    Параметр QPel формата : Нет
    Параметр GMC формата : Без точки перехода
    Параметр матрицы формата : Выборочная
    Идентификатор кодека : XVID
    Идентификатор кодека/Подсказка : XviD
    Продолжительность : 44 м.
    Битрейт : 1527 Кбит/сек
    Ширина : 704 пикселя
    Высота : 400 пикселей
    Соотношение сторон : 16: 9
    Частота кадров : 25, 000 кадров/сек
    Цветовое пространство : YUV
    Субдискретизация насыщенности : 4: 2: 0
    Битовая глубина : 8 бит
    Тип развёртки : Прогрессивная
    Метод сжатия : С потерями
    Бит/(Пиксели*Кадры) : 0.217
    Размер потока : 486 Мбайт (88%)
    Библиотека кодирования : XviD 1.2.1 (UTC 2008-12-04)
    Аудио
    Идентификатор : 1
    Формат : AC-3
    Формат/Информация : Audio Coding 3
    Расширение режима : CM (complete main)
    Параметр Endianness формата : Big
    Идентификатор кодека : 2000
    Продолжительность : 44 м.
    Вид битрейта : Постоянный
    Битрейт : 192 Кбит/сек
    Каналы : 2 канала
    Расположение каналов : Front: L R
    Частота : 48, 0 КГц
    Частота кадров : 31, 250 кадров/сек (1536 spf)
    Метод сжатия : С потерями
    Размер потока : 61, 2 Мбайт (11%)
    Выравнивание : Разделение по промежуткам
    Продолжительность промежутка : 40 мс. (1, 00 видеокадр)
    Время предзагрузки промежутка : 500 мс

    Скриншоты



    Залил: AVPStudio
    Размер скачиваемого торрента: 4.37 GB (4691232768 Bytes)

    Вторые. Отряд Кочубея (2009) DVDRip от New-Team
    загрузка...
    Рейтинг →
     (голосов: 1, оценка 3/5, голосовать можно 1 раз )

    Другие торренты по теме:

  • Шелонин Олег, Баженов Виктор - Арканарский вор. Книга вторая. Академия Колдовства (2012) MP3 торрент скачать бесплатно
  • Второй трагический Фантоцци / Il Secondo tragico Fantozzi (1976) DVDRip | P торрент скачать бесплатно
  • Крутой Сэм HD: Второе пришествие / Serious Sam HD: The Second Encounter (2010) PC | RePack от R.G. REVOLUTiON торрент скачать бесплатно
  • Ось войны. Часть вторая: Мой долгий марш / Axis of War: My Long March (2010) DVD5 торрент скачать бесплатно
  • Прозоров Александр, Пронин Игорь - Ведун. Книга вторая. Паутина зла (2013) MP3 торрент скачать бесплатно
  • Второй убойный (2012) SATRip от КинозалSAT торрент скачать бесплатно
  • Тэнти - лишний! - Фильм второй / Tenchi Muyou! Manatsu no Eve (1997) BDRip от FilmRus торрент скачать бесплатно
  • Вторая молодость / Druga mlodosc (1938) TVRip | A торрент скачать бесплатно


    • Комментарии (0):

      Информация

      Информация

        Посетители, находящиеся в группе Гости, не могут оставлять комментарии в данной новости.

        ↓ Меню



        ↓ Опрос

        А Вы добавили сайт в закладки?
        Да
        Не


        Top 10 за неделю (Фильмы)