.
Авторизация | Регистрация
Хочешь лучшие торренты? Добавь свой email!
Добавить




Звезда (2002) BDRip 1080p торрент скачать бесплатно

Опубликовал: Админ | Дата: 8-05-2016, 05:00 | Просмотров: 62



Создали в: Россия/АРК-Фильм, Мосфильм
Категория жанра: боевик, драма, приключения, военный, история
Главный режиссер: Николай Лебедев
Продюсер: Александр Литвинов, Карен Шахназаров, Александр Потемкин
Актеры: Игорь Петренко, Артем Семакин, Алексей Панин, Алексей Кравченко, Анатолий Гущин, Амаду Мамадаков, Юрий Лагута, Екатерина Вуличенко, Андрей Егоров, Сергей Миллер

Описание фильма

Лето 1944 года, Красная Армия ведет бои на подступах к западной границе СССР. В тыл врага отправляется группа разведчиков, молодых ребят. Их позывные — Звезда. Они должны выполнить задание, от которого зависит судьба фронта.
И они выполняют его, но цена этого задания оказывается слишком дорогой. Полный напряжения и драматизма, фильм заставляет вспомнить, кто победил в этой войне.

Дата мировой премьеры: 11 июля 2002
Дата российской премьеры: 6 мая 2002, ГУП `Московское кино`, Мосфильм
Релиз на DVD: 16 мая 2005, Ruscico
Релиз на Blu-Ray: 20 мая 2010, Цифровой Элемент
Время просмотра: 01: 38: 13
Качество фильма: BDRip 1080p
Перевод текста: Не требуется (Русский, Лицензия BD RUS)
Субтитры: Отсутствуют
Информация о видео: AVC/H.264, 1806x1080, (5: 3), 9 991 Kbps, 23.976 fps
Информация о звуке: DTS, 6 ch, 1509 kbps - Русский
MediaInfo:

General
Unique ID : 217931501343863639150179200989730600206 (0xA3F41496D21A19548A2EA08E6542750E)
Complete name : Звезда.mkv
Format : Matroska
Format version : Version 2
File size : 7.82 GiB
Duration : 1h 38mn
Overall bit rate : 11.4 Mbps
Encoded date : UTC 2010-06-16 00: 33: 52
Writing application : mkvmerge v2.9.7 (;Tenderness;) built on Jul 1 2009 18: 43: 35
Writing library : libebml v0.7.7 + libmatroska v0.8.1
Video
ID : 1
Format : AVC
Format/Info : Advanced Video Codec
Format profile : High@L4.1
Format settings, CABAC : Yes
Format settings, ReFrames : 4 frames
Codec ID : V_MPEG4/ISO/AVC
Duration : 1h 38mn
Bit rate : 9 991 Kbps
Width : 1 806 pixels
Height : 1 080 pixels
Display aspect ratio : 5: 3
Frame rate mode : Constant
Frame rate : 23.976 fps
Color space : YUV
Chroma subsampling : 4: 2: 0
Bit depth : 8 bits
Scan type : Progressive
Bits/(Pixel*Frame) : 0.214
Stream size : 6.62 GiB (85%)
Writing library : x264 core 94 r1583 7608d73
Encoding settings : cabac=1/ref=4/deblock=1: -3: -3/analyse=0x3: 0x133/me=umh/subme=10/psy=1/psy_rd=1.00: 0.00/mixed_ref=1/me_range=64/chroma_me=1/trellis=2/8x8dct=1/cqm=0/deadzone=21, 11/fast_pskip=0/chroma_qp_offset=-2/threads=3/sliced_threads=0/nr=0/decimate=1/interlaced=0/constrained_intra=0/bframes=4/b_pyramid=2/b_adapt=2/b_bias=0/direct=1/weightb=1/weightp=2/keyint=250/keyint_min=25/scenecut=40/intra_refresh=0/rc_lookahead=0/rc=2pass/mbtree=0/bitrate=9991/ratetol=1.0/qcomp=0.60/qpmin=10/qpmax=51/qpstep=4/cplxblur=20.0/qblur=0.5/vbv_maxrate=50000/vbv_bufsize=50000/ip_ratio=1.40/pb_ratio=1.30/aq=1: 1.00/nal_hrd=none
Language : Russian
Default : Yes
Forced : No
Audio
ID : 2
Format : DTS
Format/Info : Digital Theater Systems
Mode : 16
Format settings, Endianness : Big
Codec ID : A_DTS
Duration : 1h 38mn
Bit rate mode : Constant
Bit rate : 1 509 Kbps
Channel(s) : 6 channels
Channel positions : Front: L C R, Side: L R, LFE
Sampling rate : 48.0 KHz
Bit depth : 16 bits
Compression mode : Lossy
Stream size : 1.04 GiB (13%)
Language : Russian
Default : Yes
Forced : No

Скриншоты:

Время раздачи: 24/7

Онлайн видео Ведьма


Размер скачиваемого торрента: 7.82 GB (8395919440 Bytes)

Звезда (2002) BDRip 1080p
загрузка...
Рейтинг →
 (голосов: 1, оценка 5/5, голосовать можно 1 раз )

Другие торренты по теме:

  • Звезда родилась / A Star Is Born (1976) BDRip 720p
  • Моя прекрасная звезда / Ma bonne toile (2012) BDRip-AVC от HELLYWOOD | D
  • Рок-звезда / Rock Star (2001) BDRip 720p от MediaClub | D, P2, A скачать через торрент бесплатно
  • Третья звезда / Third star (2010) BDRip 1080p от CINEMANIA | P
  • Третья звезда / Third star (2010) BDRip 720p от CINEMANIA | P
  • Рок-звезда / Rock Star (2001) BDRip-AVC от 0ptimus | D, P2, A
  • Глубоководная звезда шесть / DeepStar Six (1988) BDRip 720p
  • Глубоководная звезда шесть / DeepStar Six (1988) BDRip-AVC | P, A


    • Комментарии (0):

      Информация

      Информация

        Посетители, находящиеся в группе Гости, не могут оставлять комментарии в данной новости.

        ↓ Меню



        ↓ Опрос

        А Вы добавили сайт в закладки?
        Да
        Не


        Top 10 за месяц (Фильмы)