.
Авторизация | Регистрация
Хочешь лучшие торренты? Добавь свой email!
Добавить
» » Я есть гнев / I Am Wrath (2016) BDRip-AVC от NNMClub | L2 торрент скачать бесплатно




    Я есть гнев / I Am Wrath (2016) BDRip-AVC от NNMClub | L2 торрент скачать бесплатно

    Опубликовал: Админ | Дата: 9-05-2016, 11:32 | Просмотров: 57



    Создали в: США, Hannibal Classics, Patriot Pictures, Vallelonga Productions, Vengeance is Mine Productions
    Категория жанра: Боевик, Триллер, Драма, Криминал
    Главный режиссер: Чак Рассел
    Актеры: Майкл Урриджиа, Ребекка Де Морнэй, Джон Траволта, Кристофер Мелони, Аманда Шулл, Сэм Трэммелл, Патрик Ст. Эсприт, Луис Да Силва мл., Дорис Моргадо, Мелисса Болона...

    Описание фильма

    История человека, чью жену убили и который, отчаявшись дождаться каких-то действий со стороны полиции, решает сам найти преступника и покарать его.

    Время просмотра: 01: 30: 34
    Качество фильма видео: BDRip-AVC
    Перевод текста: Любительский (двухголосый, закадровый)
    Субтитры: Английские (отключаемые)
    Информация о видео: AVC, 1024x428 (2.35: 1), 23.976 fps, 2 541 Kbps (0.242 bit/pixel)
    Информация о звуке #1: AC-3, 48.0 KHz, 2 ch, 384 Kbps, CBR (Russian)
    Информация о звуке #2: AC-3, 48.0 KHz, 6 ch, 448 Kbps, CBR (English)
    Сэмпл
    Mediainfo:
    Формат : Matroska
    Версия формата : Version 2
    Размер файла : 2, 14 Гбайт
    Продолжительность : 1 ч. 30 м.
    Общий поток : 3376 Кбит/сек
    Дата кодирования : UTC 2016-05-08 04: 42: 27
    Программа кодирования : mkvmerge v5.3.0 (;I could have danced;) built on Feb 9 2012 10: 38: 07
    Библиотека кодирования : libebml v1.2.3 + libmatroska v1.3.0
    Attachment : Yes
    Видео
    Идентификатор : 1
    Формат : AVC
    Формат/Информация : Advanced Video Codec
    Профиль формата : High@L4.1
    Параметр CABAC формата : Да
    Параметр ReFrames формата : 10 кадров
    Идентификатор кодека : V_MPEG4/ISO/AVC
    Продолжительность : 1 ч. 30 м.
    Битрейт : 2541 Кбит/сек
    Ширина : 1024 пикселя
    Высота : 428 пикселей
    Соотношение сторон : 2, 40: 1
    Режим частоты кадров : Постоянный
    Частота кадров : 23, 976 кадра/сек
    Цветовое пространство : YUV
    Субдискретизация насыщенности : 4: 2: 0
    Битовая глубина : 8 бит
    Тип развёртки : Прогрессивная
    Бит/(Пиксели*Кадры) : 0.242
    Размер потока : 1, 57 Гбайт (73%)
    Библиотека кодирования : x264 core 146 r2538 121396c
    Настройки программы : cabac=1/ref=10/deblock=1: -2: -1/analyse=0x3: 0x133/me=umh/subme=10/psy=1/psy_rd=1.00: 0.10/mixed_ref=1/me_range=32/chroma_me=1/trellis=2/8x8dct=1/cqm=0/deadzone=21, 11/fast_pskip=0/chroma_qp_offset=-3/threads=12/lookahead_threads=2/sliced_threads=0/nr=0/decimate=0/interlaced=0/bluray_compat=0/constrained_intra=0/bframes=8/b_pyramid=2/b_adapt=2/b_bias=0/direct=3/weightb=1/open_gop=0/weightp=2/keyint=240/keyint_min=23/scenecut=40/intra_refresh=0/rc=2pass/mbtree=0/bitrate=2541/ratetol=1.0/qcomp=0.60/qpmin=0/qpmax=69/qpstep=4/cplxblur=20.0/qblur=0.5/ip_ratio=1.40/pb_ratio=1.30/aq=2: 0.90
    Default : Да
    Forced : Нет
    Аудио #1
    Идентификатор : 2
    Формат : AC-3
    Формат/Информация : Audio Coding 3
    Расширение режима : CM (complete main)
    Параметр Endianness формата : Big
    Идентификатор кодека : A_AC3
    Продолжительность : 1 ч. 30 м.
    Вид битрейта : Постоянный
    Битрейт : 384 Кбит/сек
    Каналы : 2 канала
    Расположение каналов : Front: L R
    Частота : 48, 0 КГц
    Битовая глубина : 16 бит
    Метод сжатия : С потерями
    Размер потока : 249 Мбайт (11%)
    Язык : Russian
    Default : Да
    Forced : Нет
    Аудио #2
    Идентификатор : 3
    Формат : AC-3
    Формат/Информация : Audio Coding 3
    Расширение режима : CM (complete main)
    Параметр Endianness формата : Big
    Идентификатор кодека : A_AC3
    Продолжительность : 1 ч. 30 м.
    Вид битрейта : Постоянный
    Битрейт : 448 Кбит/сек
    Каналы : 6 каналов
    Расположение каналов : Front: L C R, Side: L R, LFE
    Частота : 48, 0 КГц
    Битовая глубина : 16 бит
    Метод сжатия : С потерями
    Размер потока : 290 Мбайт (13%)
    Язык : English
    Default : Нет
    Forced : Нет
    Текст
    Идентификатор : 4
    Формат : UTF-8
    Идентификатор кодека : S_TEXT/UTF8
    Идентификатор кодека/Информация : UTF-8 Plain Text
    Язык : English
    Default : Нет
    Forced : Нет
    Меню
    00: 00: 00.000 : en: Chapter 01
    00: 08: 37.683 : en: Chapter 02
    00: 15: 10.117 : en: Chapter 03
    00: 22: 50.869 : en: Chapter 04
    00: 31: 52.410 : en: Chapter 05
    00: 39: 11.140 : en: Chapter 06
    00: 44: 28.624 : en: Chapter 07
    00: 51: 19.117 : en: Chapter 08
    00: 59: 18.346 : en: Chapter 09
    01: 07: 14.030 : en: Chapter 10
    01: 15: 20.307 : en: Chapter 11
    01: 21: 05.193 : en: Chapter 12

    Скриншоты:

    Скриншоты


    Онлайн видео Я есть гнев




    Размер скачиваемого торрента: 2.14 GB (2293285875 Bytes)

    Я есть гнев/I Am Wrath (2016) BDRip-AVC от NNMClub | L2
    загрузка...
    Рейтинг →
     (голосов: 1, оценка 3/5, голосовать можно 1 раз )

    Другие торренты по теме:

  • Я есть гнев / I Am Wrath (2016) WEB-DL 720p | L2
  • Я есть гнев / I Am Wrath (2016) HDRip от Scarabey | L2
  • Я есть гнев / I Am Wrath / 2016 / ЛМ / DVD-5
  • Я есть гнев / I Am Wrath (2016) HDRip-AVC | A
  • Я есть гнев / I Am Wrath (2016) BDRip 720p от ExKinoRay | A
  • Я есть гнев / I Am Wrath / 2016 / АП (Котов), СТ / BDRip (1080p)
  • Я есть гнев / I Am Wrath / 2016 / АП (Котов) / BDRip
  • Я есть гнев / I Am Wrath / 2016 / АП (Котов), СТ / Blu-Ray Remux (1080p)


    • Комментарии (0):

      Информация

      Информация

        Посетители, находящиеся в группе Гости, не могут оставлять комментарии в данной новости.

        ↓ Меню



        ↓ Опрос

        А Вы добавили сайт в закладки?
        Да
        Не


        Top 10 за месяц (Фильмы)