.
Авторизация | Регистрация
Хочешь лучшие торренты? Добавь свой email!
Добавить
» » Обитель зла 4: Жизнь после смерти / Resident Evil: Afterlife (2010) BDRip-AVC | D, A торрент скачать бесплатно




    Обитель зла 4: Жизнь после смерти / Resident Evil: Afterlife (2010) BDRip-AVC | D, A торрент скачать бесплатно

    Опубликовал: Админ | Дата: 10-05-2016, 05:00 | Просмотров: 47



    Создали в: США, Германия, Франция, Канада | Constantin Film Produktion GmbH, Davis-Films, Impact Pictures
    Категория жанра: Ужасы, Боевик, Фантастика, Приключения
    Главный режиссер: Пол У. С. Андерсон
    Актеры: Милла Йовович, Эли Лартер, Вентворт Миллер, Борис Коджо, Ким Коутс, Шон Робертс, Серхио Перис-Менчета, Спенсер Лок, Сиенна Гиллори, Кейси Барнфилд, Норман Енг, Фульвио Чечере, Рэй Олубовейл, Кристофер Кано, Тацуя Гоке, Шин Кавай

    Описание фильма
    Элис продолжает свой путь в мире, поражённом вирусной инфекцией, превращающей людей в нежить. Героиня ищет оставшихся в живых, чтобы вывести их в безопасное место. Её смертельная битва с корпорацией Амбрелла выходит на новый уровень…
    Время просмотра: 01: 36: 53
    Качество фильма видео: BDRip
    Перевод текста: Дублированный, авторский одноголосый
    Вид субтитров: Вшитые отключаемые
    Язык субтитров: Русский (Forced, Full), Английский
    Информация о видео: MPEG-4 AVC/H.264, 2400 Kbps, 1024x426
    Информация о звуке 1: Русский AC3 5.1, 448 Kbps, 48.0 KHz (Дублированный) Blu-ray CEE
    Информация о звуке 2: Русский AC3 5.1, 384 Kbps, 48.0 KHz (Одноголосый закадровый) А. Гаврилов
    Информация о звуке 3: Русский AC3 5.1, 384 Kbps, 48.0 KHz (Одноголосый закадровый) А. Дасевич
    Информация о звуке 4: Русский AC3 5.1, 384 Kbps, 48.0 KHz (Одноголосый закадровый) Д. Строев
    Информация о звуке 5: Русский AC3 5.1, 384 Kbps, 48.0 KHz (Одноголосый закадровый) С. Рапсодов
    Информация о звуке 6: Английский AC3 5.1, 448 Kbps, 48.0 KHz (Оригинал)
    MediaInfo

    Общее
    Полное имя : Обитель зла 4.mkv
    Формат : Matroska
    Версия формата : Version 1
    Размер файла : 3, 27 Гбайт
    Продолжительность : 1 ч. 36 м.
    Общий поток : 4835 Кбит/сек
    Дата кодирования : UTC 2015-09-06 11: 56: 04
    Программа кодирования : mkvmerge v2.4.1 (;Use Me;) built on Dec 5 2008 18: 30: 05
    Библиотека кодирования : libebml v0.7.7 + libmatroska v0.8.1
    Видео
    Идентификатор : 1
    Формат : AVC
    Формат/Информация : Advanced Video Codec
    Профиль формата : High@L4.1
    Параметр CABAC формата : Да
    Параметр ReFrames формата : 10 кадров
    Идентификатор кодека : V_MPEG4/ISO/AVC
    Продолжительность : 1 ч. 36 м.
    Битрейт : 2400 Кбит/сек
    Ширина : 1024 пикселя
    Высота : 426 пикселей
    Соотношение сторон : 2, 40: 1
    Режим частоты кадров : Постоянный
    Частота кадров : 23, 976 кадра/сек
    Цветовое пространство : YUV
    Субдискретизация насыщенности : 4: 2: 0
    Битовая глубина : 8 бит
    Тип развёртки : Прогрессивная
    Бит/(Пиксели*Кадры) : 0.229
    Размер потока : 1, 56 Гбайт (48%)
    Заголовок : Обитель зла 4: Жизнь после смерти (2010)
    Библиотека кодирования : x264 core 146 r2538 121396c
    Настройки программы : cabac=1/ref=10/deblock=1: -3: -3/analyse=0x3: 0x133/me=umh/subme=10/psy=1/psy_rd=1.00: 0.10/mixed_ref=1/me_range=48/chroma_me=1/trellis=2/8x8dct=1/cqm=0/deadzone=21, 11/fast_pskip=0/chroma_qp_offset=-3/threads=6/lookahead_threads=1/sliced_threads=0/nr=0/decimate=1/interlaced=0/bluray_compat=0/constrained_intra=0/bframes=5/b_pyramid=2/b_adapt=2/b_bias=0/direct=3/weightb=1/open_gop=0/weightp=2/keyint=240/keyint_min=22/scenecut=40/intra_refresh=0/rc_lookahead=40/rc=2pass/mbtree=1/bitrate=2400/ratetol=1.0/qcomp=0.60/qpmin=10/qpmax=51/qpstep=4/cplxblur=20.0/qblur=0.5/ip_ratio=1.40/aq=1: 1.00
    Язык : English
    Default : Да
    Forced : Нет
    Аудио #1
    Идентификатор : 2
    Формат : AC-3
    Формат/Информация : Audio Coding 3
    Расширение режима : CM (complete main)
    Параметр Endianness формата : Big
    Идентификатор кодека : A_AC3
    Продолжительность : 1 ч. 36 м.
    Вид битрейта : Постоянный
    Битрейт : 448 Кбит/сек
    Каналы : 6 каналов
    Расположение каналов : Front: L C R, Side: L R, LFE
    Частота : 48, 0 КГц
    Битовая глубина : 16 бит
    Метод сжатия : С потерями
    Размер потока : 310 Мбайт (9%)
    Заголовок : AC3 (Дублированный) Blu-ray CEE
    Язык : Russian
    Default : Да
    Forced : Нет
    Аудио #2
    Идентификатор : 3
    Формат : AC-3
    Формат/Информация : Audio Coding 3
    Расширение режима : CM (complete main)
    Параметр Endianness формата : Big
    Идентификатор кодека : A_AC3
    Продолжительность : 1 ч. 36 м.
    Вид битрейта : Постоянный
    Битрейт : 384 Кбит/сек
    Каналы : 6 каналов
    Расположение каналов : Front: L C R, Side: L R, LFE
    Частота : 48, 0 КГц
    Битовая глубина : 16 бит
    Метод сжатия : С потерями
    Размер потока : 266 Мбайт (8%)
    Заголовок : AC3 (Одноголосый) А. Гаврилов
    Язык : Russian
    Default : Нет
    Forced : Нет
    Аудио #3
    Идентификатор : 4
    Формат : AC-3
    Формат/Информация : Audio Coding 3
    Расширение режима : CM (complete main)
    Параметр Endianness формата : Big
    Идентификатор кодека : A_AC3
    Продолжительность : 1 ч. 36 м.
    Вид битрейта : Постоянный
    Битрейт : 384 Кбит/сек
    Каналы : 6 каналов
    Расположение каналов : Front: L C R, Side: L R, LFE
    Частота : 48, 0 КГц
    Битовая глубина : 16 бит
    Метод сжатия : С потерями
    Размер потока : 266 Мбайт (8%)
    Заголовок : AC3 (Одноголосый) А. Дасевич
    Язык : Russian
    Default : Нет
    Forced : Нет
    Аудио #4
    Идентификатор : 5
    Формат : AC-3
    Формат/Информация : Audio Coding 3
    Расширение режима : CM (complete main)
    Параметр Endianness формата : Big
    Идентификатор кодека : A_AC3
    Продолжительность : 1 ч. 36 м.
    Вид битрейта : Постоянный
    Битрейт : 384 Кбит/сек
    Каналы : 6 каналов
    Расположение каналов : Front: L C R, Side: L R, LFE
    Частота : 48, 0 КГц
    Битовая глубина : 16 бит
    Метод сжатия : С потерями
    Размер потока : 266 Мбайт (8%)
    Заголовок : AC3 (Одноголосый) Д. Строев
    Язык : Russian
    Default : Нет
    Forced : Нет
    Аудио #5
    Идентификатор : 6
    Формат : AC-3
    Формат/Информация : Audio Coding 3
    Расширение режима : CM (complete main)
    Параметр Endianness формата : Big
    Идентификатор кодека : A_AC3
    Продолжительность : 1 ч. 36 м.
    Вид битрейта : Постоянный
    Битрейт : 384 Кбит/сек
    Каналы : 6 каналов
    Расположение каналов : Front: L C R, Side: L R, LFE
    Частота : 48, 0 КГц
    Битовая глубина : 16 бит
    Метод сжатия : С потерями
    Размер потока : 266 Мбайт (8%)
    Заголовок : AC3 (Одноголосый) С. Рапсодов
    Язык : Russian
    Default : Нет
    Forced : Нет
    Аудио #6
    Идентификатор : 7
    Формат : AC-3
    Формат/Информация : Audio Coding 3
    Расширение режима : CM (complete main)
    Параметр Endianness формата : Big
    Идентификатор кодека : A_AC3
    Продолжительность : 1 ч. 36 м.
    Вид битрейта : Постоянный
    Битрейт : 448 Кбит/сек
    Каналы : 6 каналов
    Расположение каналов : Front: L C R, Side: L R, LFE
    Частота : 48, 0 КГц
    Битовая глубина : 16 бит
    Метод сжатия : С потерями
    Размер потока : 310 Мбайт (9%)
    Заголовок : AC3 (Оригинал)
    Язык : English
    Default : Нет
    Forced : Нет
    Текст #1
    Идентификатор : 8
    Формат : UTF-8
    Идентификатор кодека : S_TEXT/UTF8
    Идентификатор кодека/Информация : UTF-8 Plain Text
    Заголовок : Русские (Форсированные)
    Язык : Russian
    Default : Да
    Forced : Нет
    Текст #2
    Идентификатор : 9
    Формат : UTF-8
    Идентификатор кодека : S_TEXT/UTF8
    Идентификатор кодека/Информация : UTF-8 Plain Text
    Заголовок : Русские
    Язык : Russian
    Default : Нет
    Forced : Нет
    Текст #3
    Идентификатор : 10
    Формат : UTF-8
    Идентификатор кодека : S_TEXT/UTF8
    Идентификатор кодека/Информация : UTF-8 Plain Text
    Заголовок : Английские
    Язык : English
    Default : Нет
    Forced : Нет

    Скриншоты:

    Скриншоты


    Онлайн видео Обитель зла 4: Жизнь после смерти




    Размер скачиваемого торрента: 3.27 GB (3512882373 Bytes)

    Обитель зла 4: Жизнь после смерти/Resident Evil: Afterlife (2010) BDRip-AVC | D, A
    загрузка...
    Рейтинг →
     (голосов: 1, оценка 5/5, голосовать можно 1 раз )

    Другие торренты по теме:

  • Обитель зла 4: Жизнь после смерти / Resident Evil: Afterlife (2010) BDRip 1080p от FREEISLAND | D
  • Tomandandy - Обитель зла 4: Жизнь после смерти 3D / Resident Evil: Afterlife (2010) FLAC
  • Обитель зла 4: Жизнь после смерти / Resident Evil: Afterlife (2010) BDRip 720p от Leonardo and Scarabey | D скачать через торрент бесплатно
  • Обитель зла 4: Жизнь после смерти 3D / Resident Evil: Afterlife (2010) BDRip-AVC | iPhone | D
  • Обитель зла 4: Жизнь после смерти / Resident Evil: Afterlife (2010) BDRip-AVC от Leo.pard | D
  • Обитель зла 4: Жизнь после смерти / Resident Evil: Afterlife (2010) HDRip | Гаврилов скачать через торрент бесплатно
  • Обитель зла 4: Жизнь после смерти / Resident Evil: Afterlife (2010) BDRip 1080p HEVC | 3D-Video | OU | D
  • Обитель зла 4: Жизнь после смерти / Resident Evil: Afterlife (2010) HDRip от Scarabey | D


    • Комментарии (0):

      Информация

      Информация

        Посетители, находящиеся в группе Гости, не могут оставлять комментарии в данной новости.

        ↓ Меню



        ↓ Опрос

        А Вы добавили сайт в закладки?
        Да
        Не


        Top 10 за месяц (Фильмы)