.
Авторизация | Регистрация
Хочешь лучшие торренты? Добавь свой email!
Добавить
» » Одиночка / Le solitaire (1987) BDRip-AVC | D, P торрент скачать бесплатно




    Одиночка / Le solitaire (1987) BDRip-AVC | D, P торрент скачать бесплатно

    Опубликовал: Админ | Дата: 10-05-2016, 05:00 | Просмотров: 106



    Создали в: Франция/Cerito Films, Sara Films
    Категория жанра: Боевик, Триллер, Драма, Криминал
    Главный режиссер: Жак Дере
    Актеры: Жан-Поль Бельмондо, Жан-Пьер Мало, Мишель Бон, Пьер Вернье, Франсуа Дюнойе, Франк Айя, Лоран Жандрон, Жан-Клод Де Горос, Ги Паннекин, Патриция Мальвуазен

    Описание фильма

    До каких границ может дойти служитель закона в борьбе с преступниками, которые границ не знают? Комиссара Стэна называли фашистом с куриными мозгами и стальными мускулами. Но он справедлив и надежен и не остановиться ни перед чем, чтобы отомстить за гибель своего напарника и друга…
    Время просмотра: 01: 32: 06
    Качество фильма видео: BDRip-AVC
    Перевод текста: Дублированный, многоголосый закадровый
    Язык субтитров: Русский, французский
    Вид субтитров: Вшитые отключаемые
    Информация о видео: AVC/H.264, 1024x552, ~3050 Kbps
    Информация о звуке 1: Русский, AC3, 2 ch, 192 Kbps, 48.0 kHz (Dub, киностудия им. М. Горького)
    Информация о звуке 2: Русский, AC3, 2 ch, 192 Kbps, 48.0 kHz (MVO, НТВ+)
    Информация о звуке 3: Русский, AC3, 2 ch, 192 Kbps, 48.0 kHz (MVO, Cinema Prestige)
    Информация о звуке 4: Французский, AC3, 2 ch, 192 Kbps, 48.0 kHz (Оригинал)
    Mediainfo:
    code
    General
    Unique ID : 233762885023903733450378623200658888745 (0xAFDD1811647BAB6D908076F52FE69829)
    Complete name : F: DownloadsОдиночка.mkv
    Format : Matroska
    Format version : Version 4/Version 2
    File size : 2.46 GiB
    Duration : 1h 32mn
    Overall bit rate : 3 821 Kbps
    Encoded date : UTC 2016-01-22 10: 17: 32
    Writing application : mkvmerge v7.0.0 (;Where We Going;) 32bit built on Jun 9 2014 15: 08: 34
    Writing library : libebml v1.3.0 + libmatroska v1.4.1
    _STATISTICS_WRITING_APP : mkvmerge v7.0.0 (;Where We Going;) 32bit built on Jun 9 2014 15: 08: 34
    _STATISTICS_WRITING_DATE_UTC : 2016-01-22 10: 17: 32
    _STATISTICS_TAGS : BPS DURATION NUMBER_OF_FRAMES NUMBER_OF_BYTES
    DURATION : 01: 32: 06.592000000
    NUMBER_OF_FRAMES : 172706
    NUMBER_OF_BYTES : 132638208
    Video
    ID : 1
    Format : AVC
    Format/Info : Advanced Video Codec
    Format profile : High@L4.1
    Format settings, CABAC : Yes
    Format settings, ReFrames : 8 frames
    Codec ID : V_MPEG4/ISO/AVC
    Duration : 1h 32mn
    Bit rate : 3 050 Kbps
    Width : 1 024 pixels
    Height : 552 pixels
    Display aspect ratio : 1.85: 1
    Frame rate mode : Constant
    Frame rate : 25.000 fps
    Color space : YUV
    Chroma subsampling : 4: 2: 0
    Bit depth : 8 bits
    Scan type : Progressive
    Bits/(Pixel*Frame) : 0.216
    Stream size : 1.92 GiB (78%)
    Title : Le solitaire
    Writing library : x264 core 125 r2208 d9d2288
    Encoding settings : cabac=1/ref=8/deblock=1: -1: -1/analyse=0x3: 0x133/me=umh/subme=9/psy=1/psy_rd=1.00: 0.10/mixed_ref=1/me_range=32/chroma_me=1/trellis=2/8x8dct=1/cqm=0/deadzone=21, 11/fast_pskip=0/chroma_qp_offset=-3/threads=6/lookahead_threads=1/sliced_threads=0/nr=0/decimate=1/interlaced=0/bluray_compat=0/constrained_intra=0/bframes=3/b_pyramid=2/b_adapt=2/b_bias=0/direct=3/weightb=1/open_gop=0/weightp=2/keyint=250/keyint_min=25/scenecut=40/intra_refresh=0/rc_lookahead=60/rc=2pass/mbtree=1/bitrate=3050/ratetol=1.0/qcomp=0.60/qpmin=0/qpmax=69/qpstep=4/cplxblur=20.0/qblur=0.5/ip_ratio=1.40/aq=1: 1.00
    Language : French
    Default : Yes
    Forced : No
    Audio #1
    ID : 2
    Format : AC-3
    Format/Info : Audio Coding 3
    Mode extension : CM (complete main)
    Format settings, Endianness : Big
    Codec ID : A_AC3
    Duration : 1h 32mn
    Bit rate mode : Constant
    Bit rate : 192 Kbps
    Channel(s) : 2 channels
    Channel positions : Front: L R
    Sampling rate : 48.0 KHz
    Bit depth : 16 bits
    Compression mode : Lossy
    Stream size : 126 MiB (5%)
    Title : Дубляж, киностудия им. М. Горького
    Language : Russian
    Default : Yes
    Forced : No
    Audio #2
    ID : 3
    Format : AC-3
    Format/Info : Audio Coding 3
    Mode extension : CM (complete main)
    Format settings, Endianness : Big
    Codec ID : A_AC3
    Duration : 1h 32mn
    Bit rate mode : Constant
    Bit rate : 192 Kbps
    Channel(s) : 2 channels
    Channel positions : Front: L R
    Sampling rate : 48.0 KHz
    Bit depth : 16 bits
    Compression mode : Lossy
    Stream size : 126 MiB (5%)
    Title : Многоголосый закадровый, НТВ+
    Language : Russian
    Default : No
    Forced : No
    Audio #3
    ID : 4
    Format : AC-3
    Format/Info : Audio Coding 3
    Mode extension : CM (complete main)
    Format settings, Endianness : Big
    Codec ID : A_AC3
    Duration : 1h 32mn
    Bit rate mode : Constant
    Bit rate : 192 Kbps
    Channel(s) : 2 channels
    Channel positions : Front: L R
    Sampling rate : 48.0 KHz
    Bit depth : 16 bits
    Compression mode : Lossy
    Stream size : 126 MiB (5%)
    Title : Многоголосый закадровый, Cinema Prestige
    Language : Russian
    Default : No
    Forced : No
    Audio #4
    ID : 5
    Format : AC-3
    Format/Info : Audio Coding 3
    Mode extension : CM (complete main)
    Format settings, Endianness : Big
    Codec ID : A_AC3
    Duration : 1h 32mn
    Bit rate mode : Constant
    Bit rate : 192 Kbps
    Channel(s) : 2 channels
    Channel positions : Front: L R
    Sampling rate : 48.0 KHz
    Bit depth : 16 bits
    Compression mode : Lossy
    Stream size : 126 MiB (5%)
    Title : Оригинал
    Language : French
    Default : No
    Forced : No
    Text #1
    ID : 6
    Format : UTF-8
    Codec ID : S_TEXT/UTF8
    Codec ID/Info : UTF-8 Plain Text
    Title : Full
    Language : Russian
    Default : No
    Forced : No
    Text #2
    ID : 7
    Format : UTF-8
    Codec ID : S_TEXT/UTF8
    Codec ID/Info : UTF-8 Plain Text
    Title : Full
    Language : French
    Default : No
    Forced : No

    Скриншоты:

    Скриншоты




    Онлайн видео Одиночка




    Размер скачиваемого торрента: 2.46 GB (2639356014 Bytes)

    Одиночка/Le solitaire (1987) BDRip-AVC | D, P
    загрузка...
    Рейтинг →
     (голосов: 1, оценка 5/5, голосовать можно 1 раз )

    Другие торренты по теме:

  • Одиночка / En solitaire (2013) BDRip 720p | P
  • Одиночка / Le solitaire (1987) HDRip от Scarabey | D


    • Комментарии (0):

      Информация

      Информация

        Посетители, находящиеся в группе Гости, не могут оставлять комментарии в данной новости.

        ↓ Меню



        ↓ Опрос

        А Вы добавили сайт в закладки?
        Да
        Не


        Top 10 за месяц (Фильмы)