.
Авторизация | Регистрация
» » Ведьма / The VVitch: A New-England Folktale (2015) BDRip 1080p от ExKinoRay | L торрент скачать бесплатно




    Ведьма / The VVitch: A New-England Folktale (2015) BDRip 1080p от ExKinoRay | L торрент скачать бесплатно

    Опубликовал: Админ | Дата: 11-05-2016, 05:00 | Просмотров: 81



    Детально о кино
    Русское название: Ведьма
    Русское название в мировом прокате: The VVitch: A New-England Folktale
    Создали в: 2015
    Категория жанра: Ужасы, детектив
    Главный режиссер: Роберт Эггерс

    Актеры
    Аня Тейлор-Джой, Ралф Айнесон, Кейт Дики, Харви Скримшо, Элли Грэйнджер, Лукас Доусон, Батшеба Гарнетт, Сара Стефенс, Джулиан Ричингс, Вахаб Каудхри

    Сюжет фильма

    Семья колонистов покидает плантацию, чтобы жить на уединенной ферме рядом с лесом в Новой Англии. Но вскоре младший ребёнок, ещё младенец, исчезает.

    Снималось в: США, Великобритания, Канада, Бразилия
    Киностудия: Code Red Productions, Maiden Voyage Pictures, Mott Street Pictures, Parts and Labor
    Время просмотра: 01: 32: 26
    Перевод текста: Любительский многоголосый (закадровый) | Paradox Omskbird records
    Файл
    Кодек для видео: MPEG-4
    Качество фильма: BDRip 1080p
    Информация о видео: 1792x1080, 15.9 Мbit/s, 23.976 fps
    Информация о звуке:
    Информация о звуке #01: 48 kHz, DTS, 5.1, 1510 Kbps | Любительский многоголосый (закадровый), Paradox Omskbird records |
    Информация о звуке #02: 48 kHz, AC3, 5.1, 448 Kbps | Любительский многоголосый (закадровый), Paradox Omskbird records |
    Информация о звуке #03: 48 kHz, DTS, 5.1, 1510 kbps | Оригинал |
    Субтитры: Русские, английские (srt, SDH)
    Релиз подготовил: Автор релиза:

    MI
    Общее
    Уникальный идентификатор : 192777245686393283904146059742315365502 (0x91078C089C644F00942BB73F1DB1447E)
    Полное имя : G: VideoThe.VVitch.A.New.England.Folktale.2015.BDRip.1080p.ExKinoRay.mkv
    Формат : Matroska
    Версия формата : Version 4/Version 2
    Размер файла : 12, 5 Гбайт
    Продолжительность : 1 ч. 32 м.
    Общий поток : 19, 3 Мбит/сек
    Название фильма : The.VVitch: A.New-England.Folktale.2015.BDRip.1080p.ExKinoRay
    Дата кодирования : UTC 2016-05-10 18: 04: 32
    Программа кодирования : mkvmerge v8.3.0 (;Over the Horizon;) 64bit
    Библиотека кодирования : libebml v1.3.1 + libmatroska v1.4.2
    Видео
    Идентификатор : 1
    Формат : AVC
    Формат/Информация : Advanced Video Codec
    Профиль формата : High@L4.1
    Параметр CABAC формата : Да
    Параметр ReFrames формата : 4 кадра
    Идентификатор кодека : V_MPEG4/ISO/AVC
    Продолжительность : 1 ч. 32 м.
    Битрейт : 15, 9 Мбит/сек
    Ширина : 1792 пикселя
    Высота : 1080 пикселей
    Соотношение сторон : 5: 3
    Режим частоты кадров : Постоянный
    Частота кадров : 23, 976 (24000/1001) кадра/сек
    Цветовое пространство : YUV
    Субдискретизация насыщенности : 4: 2: 0
    Битовая глубина : 8 бит
    Тип развёртки : Прогрессивная
    Бит/(Пиксели*Кадры) : 0.342
    Размер потока : 10, 2 Гбайт (82%)
    Заголовок : The.VVitch: A.New-England.Folktale.2015.BDRip.1080p.ExKinoRay.***селезень***
    Библиотека кодирования : x264 core 148 r2665+53 6629127 t_mod_Custom 8-bit@all X86_64
    Настройки программы : cabac=1/ref=4/deblock=1: -3: -3/analyse=0x3: 0x133/me=umh/subme=11/psy=1/fade_compensate=0.00/psy_rd=1.10: 0.00/mixed_ref=1/me_range=32/chroma_me=1/trellis=2/8x8dct=1/cqm=0/deadzone=21, 11/fast_pskip=0/chroma_qp_offset=-2/threads=16/lookahead_threads=4/sliced_threads=0/nr=0/decimate=0/interlaced=0/bluray_compat=0/constrained_intra=0/fgo=0/bframes=11/b_pyramid=2/b_adapt=2/b_bias=0/direct=3/weightb=1/open_gop=0/weightp=2/keyint=250/keyint_min=23/scenecut=40/intra_refresh=0/rc_lookahead=150/rc=crf/mbtree=0/crf=18.2000/qcomp=0.70/qpmin=0: 0: 0/qpmax=69: 69: 69/qpstep=4/vbv_maxrate=50000/vbv_bufsize=62500/crf_max=0.0/nal_hrd=none/filler=0/ip_ratio=1.20/pb_ratio=1.10/aq=3: 0.80/aq-sensitivity=10.00/aq-factor=1.00: 1.00: 1.00/aq2=0/aq3=0
    Язык : English
    Default : Да
    Forced : Нет
    Цветовой диапазон : Limited
    Коэффициенты матрицы : BT.709
    Аудио #1
    Идентификатор : 2
    Формат : DTS
    Формат/Информация : Digital Theater Systems
    Режим : 16
    Параметр Endianness формата : Big
    Идентификатор кодека : A_DTS
    Продолжительность : 1 ч. 32 м.
    Вид битрейта : Постоянный
    Битрейт : 1509 Кбит/сек
    Каналы : 6 каналов
    Расположение каналов : Front: L C R, Side: L R, LFE
    Частота : 48, 0 КГц
    Частота кадров : 93, 750 кадра/сек (512 spf)
    Битовая глубина : 24 бит
    Метод сжатия : С потерями
    Размер потока : 998 Мбайт (8%)
    Заголовок : MVO-DTS Paradox Omskbird records
    Язык : Russian
    Default : Да
    Forced : Да
    Аудио #2
    Идентификатор : 3
    Формат : AC-3
    Формат/Информация : Audio Coding 3
    Расширение режима : CM (complete main)
    Параметр Endianness формата : Big
    Идентификатор кодека : A_AC3
    Продолжительность : 1 ч. 32 м.
    Вид битрейта : Постоянный
    Битрейт : 448 Кбит/сек
    Каналы : 6 каналов
    Расположение каналов : Front: L C R, Side: L R, LFE
    Частота : 48, 0 КГц
    Частота кадров : 31, 250 кадров/сек (1536 spf)
    Метод сжатия : С потерями
    Размер потока : 296 Мбайт (2%)
    Заголовок : MVO Paradox Omskbird records
    Язык : Russian
    Default : Нет
    Forced : Нет
    Аудио #3
    Идентификатор : 4
    Формат : DTS
    Формат/Информация : Digital Theater Systems
    Режим : 16
    Параметр Endianness формата : Big
    Идентификатор кодека : A_DTS
    Продолжительность : 1 ч. 32 м.
    Вид битрейта : Постоянный
    Битрейт : 1509 Кбит/сек
    Каналы : 6 каналов
    Расположение каналов : Front: L C R, Side: L R, LFE
    Частота : 48, 0 КГц
    Частота кадров : 93, 750 кадра/сек (512 spf)
    Битовая глубина : 24 бит
    Метод сжатия : С потерями
    Размер потока : 998 Мбайт (8%)
    Заголовок : Original
    Язык : English
    Default : Нет
    Forced : Нет
    Текст #1
    Идентификатор : 5
    Формат : UTF-8
    Идентификатор кодека : S_TEXT/UTF8
    Идентификатор кодека/Информация : UTF-8 Plain Text
    Продолжительность : 1 ч. 25 м.
    Битрейт : 59 бит/сек
    Count of elements : 786
    Размер потока : 37, 0 Кбайт (0%)
    Язык : Russian
    Default : Нет
    Forced : Нет
    Текст #2
    Идентификатор : 6
    Формат : UTF-8
    Идентификатор кодека : S_TEXT/UTF8
    Идентификатор кодека/Информация : UTF-8 Plain Text
    Продолжительность : 1 ч. 24 м.
    Битрейт : 40 бит/сек
    Count of elements : 814
    Размер потока : 25, 0 Кбайт (0%)
    Язык : English
    Default : Нет
    Forced : Нет
    Текст #3
    Идентификатор : 7
    Формат : UTF-8
    Идентификатор кодека : S_TEXT/UTF8
    Идентификатор кодека/Информация : UTF-8 Plain Text
    Продолжительность : 1 ч. 27 м.
    Битрейт : 43 бит/сек
    Count of elements : 953
    Размер потока : 27, 7 Кбайт (0%)
    Заголовок : SDH
    Язык : English
    Default : Нет
    Forced : Нет
    Меню
    00: 00: 00.000 : en: Chapter 01
    00: 04: 44.159 : en: Chapter 02
    00: 13: 12.333 : en: Chapter 03
    00: 18: 51.672 : en: Chapter 04
    00: 26: 40.432 : en: Chapter 05
    00: 29: 47.869 : en: Chapter 06
    00: 37: 11.145 : en: Chapter 07
    00: 42: 09.068 : en: Chapter 08
    00: 48: 23.817 : en: Chapter 09
    00: 53: 23.867 : en: Chapter 10
    01: 00: 36.049 : en: Chapter 11
    01: 04: 13.558 : en: Chapter 12
    01: 10: 27.431 : en: Chapter 13
    01: 13: 55.431 : en: Chapter 14
    01: 20: 42.045 : en: Chapter 15
    01: 25: 14.901 : en: Chapter 16
    Скриншоты


    Онлайн видео Ведьма


    Размер скачиваемого торрента: 12.48 GB (13402054104 Bytes)

    Ведьма/The VVitch: A New-England Folktale (2015) BDRip 1080p от ExKinoRay | L
    загрузка...
    Рейтинг →
     (голосов: 1, оценка 5/5, голосовать можно 1 раз )

    Другие торренты по теме:

  • Ведьма / The VVitch: A New-England Folktale (2015) WEBRip от koshera | L2
  • Ведьма / The VVitch: A New-England Folktale (2015)
  • Ведьма / The VVitch: A New-England Folktale (2015) HDRip от Scarabey | L
  • Ведьма / The VVitch: A New-England Folktale (2015) HDRip-AVC | L
  • Ведьма / The VVitch: A New-England Folktale (2015) BDRip 720p от ExKinoRay | D, L
  • Ведьма / The VVitch: A New-England Folktale (2015) BDRemux 1080p от ExKinoRay | D, L
  • Ведьма / The VVitch: A New-England Folktale (2015) HDRip- AVC | D
  • Ведьма / The VVitch: A New-England Folktale (2016) HDRip от Generalfilm | КПК | Лицензия


    • Комментарии (0):

      Информация

      Информация

        Посетители, находящиеся в группе Гости, не могут оставлять комментарии в данной новости.

        ↓ Меню



        ↓ Опрос

        А Вы добавили сайт в закладки?
        Да
        Не


        Top 10 за месяц (Фильмы)