.
Авторизация | Регистрация
Хочешь лучшие торренты? Добавь свой email!
Добавить
» » Лес призраков / The Forest (2016) BDRip 1080p от ExKinoRay | iTunes торрент скачать бесплатно




    Лес призраков / The Forest (2016) BDRip 1080p от ExKinoRay | iTunes торрент скачать бесплатно

    Опубликовал: Админ | Дата: 11-05-2016, 05:00 | Просмотров: 95



    Детально о кино
    Русское название: Лес призраков
    Русское название в мировом прокате: The Forest
    Создали в: 2016
    Категория жанра: Ужасы
    Главный режиссер: Джейсон Зада

    Актеры
    Натали Дормер, Оуэн Мэкен, Стефани Вогт, Осаму Танпопо, Ясуо Тобисима, Ибуки Канеда, Акико Ивасе, Кикуо Ичикава, Норико Сакура, Йозеф Аоки

    Сюжет фильма

    Юная американка Сара отправляется на поиски сестры-близняшки, которая таинственным образом исчезла на японском острове Хонсю. Поиски приводят к подножью горы Фудзи, в таинственный лес, который пользуется дурной славой. Сара не подозревала, что она вступает в мрачный мир призраков, злых и измученных душ, которые охотятся на любого, кто блуждает по их мрачному лесу…

    Снималось в: США
    Киностудия: AI-Film, Lava Bear Films
    Время просмотра: 01: 33: 17
    Перевод текста: Дублированный | iTunes
    Файл
    Кодек для видео: MPEG-4
    Качество фильма: BDRip 1080p
    Информация о видео: 1920x1040, 14.4 Mbit/s, 23.976 fps
    Информация о звуке:
    Информация о звуке #01: 48 kHz, AC3, 5.1, 384 Kbps | Дублированный, iTunes |
    Информация о звуке #02: 48 kHz, DTS, 5.1, 1510 kbps | Оригинал |
    Субтитры: Английские
    Релиз подготовил: Автор релиза:

    MI
    Общее
    Уникальный идентификатор : 249005898489315231883056921799981432973 (0xBB54CAA7CD6CCD528B165F7C572A808D)
    Полное имя : G: VideoThe.Forest.2016.BDRip.1080p.ExKinoRay.mkv
    Формат : Matroska
    Версия формата : Version 4/Version 2
    Размер файла : 10, 6 Гбайт
    Продолжительность : 1 ч. 33 м.
    Общий поток : 16, 3 Мбит/сек
    Название фильма : The.Forest.2016.BDRip.1080p.ExKinoRay
    Дата кодирования : UTC 2016-05-10 13: 28: 05
    Программа кодирования : mkvmerge v8.3.0 (;Over the Horizon;) 64bit
    Библиотека кодирования : libebml v1.3.1 + libmatroska v1.4.2
    Видео
    Идентификатор : 1
    Формат : AVC
    Формат/Информация : Advanced Video Codec
    Профиль формата : High@L4.1
    Параметр CABAC формата : Да
    Параметр ReFrames формата : 4 кадра
    Идентификатор кодека : V_MPEG4/ISO/AVC
    Продолжительность : 1 ч. 33 м.
    Битрейт : 14, 4 Мбит/сек
    Ширина : 1920 пикселей
    Высота : 1040 пикселей
    Соотношение сторон : 1, 85: 1
    Режим частоты кадров : Постоянный
    Частота кадров : 23, 976 (24000/1001) кадра/сек
    Цветовое пространство : YUV
    Субдискретизация насыщенности : 4: 2: 0
    Битовая глубина : 8 бит
    Тип развёртки : Прогрессивная
    Бит/(Пиксели*Кадры) : 0.301
    Размер потока : 9, 40 Гбайт (88%)
    Заголовок : The.Forest.2016.BDRip.1080p.ExKinoRay.***селезень***
    Библиотека кодирования : x264 core 148 r2665+53 6629127 t_mod_Custom 8-bit@all X86_64
    Настройки программы : cabac=1/ref=4/deblock=1: -3: -3/analyse=0x3: 0x133/me=umh/subme=10/psy=1/fade_compensate=0.00/psy_rd=1.00: 0.00/mixed_ref=1/me_range=32/chroma_me=1/trellis=2/8x8dct=1/cqm=0/deadzone=21, 11/fast_pskip=0/chroma_qp_offset=-2/threads=8/lookahead_threads=1/sliced_threads=0/nr=0/decimate=0/interlaced=0/bluray_compat=0/constrained_intra=0/fgo=0/bframes=8/b_pyramid=2/b_adapt=2/b_bias=0/direct=3/weightb=1/open_gop=0/weightp=2/keyint=250/keyint_min=23/scenecut=40/intra_refresh=0/rc_lookahead=150/rc=crf/mbtree=0/crf=17.0000/qcomp=0.60/qpmin=0: 0: 0/qpmax=69: 69: 69/qpstep=4/vbv_maxrate=50000/vbv_bufsize=62500/crf_max=0.0/nal_hrd=none/filler=0/ip_ratio=1.40/pb_ratio=1.30/aq=3: 0.75/aq-sensitivity=10.00/aq-factor=1.00: 1.00: 1.00/aq2=0/aq3=0
    Язык : English
    Default : Да
    Forced : Нет
    Аудио #1
    Идентификатор : 2
    Формат : AC-3
    Формат/Информация : Audio Coding 3
    Расширение режима : CM (complete main)
    Параметр Endianness формата : Big
    Идентификатор кодека : A_AC3
    Продолжительность : 1 ч. 33 м.
    Вид битрейта : Постоянный
    Битрейт : 384 Кбит/сек
    Каналы : 6 каналов
    Расположение каналов : Front: L C R, Side: L R, LFE
    Частота : 48, 0 КГц
    Частота кадров : 31, 250 кадров/сек (1536 spf)
    Метод сжатия : С потерями
    Размер потока : 256 Мбайт (2%)
    Заголовок : DUB iTunes
    Язык : Russian
    Default : Да
    Forced : Нет
    Аудио #2
    Идентификатор : 3
    Формат : DTS
    Формат/Информация : Digital Theater Systems
    Режим : 16
    Параметр Endianness формата : Big
    Идентификатор кодека : A_DTS
    Продолжительность : 1 ч. 33 м.
    Вид битрейта : Постоянный
    Битрейт : 1509 Кбит/сек
    Каналы : 6 каналов
    Расположение каналов : Front: L C R, Side: L R, LFE
    Частота : 48, 0 КГц
    Частота кадров : 93, 750 кадра/сек (512 spf)
    Битовая глубина : 24 бит
    Метод сжатия : С потерями
    Размер потока : 1007 Мбайт (9%)
    Язык : English
    Default : Нет
    Forced : Нет
    Текст #1
    Идентификатор : 4
    Формат : UTF-8
    Идентификатор кодека : S_TEXT/UTF8
    Идентификатор кодека/Информация : UTF-8 Plain Text
    Продолжительность : 1 ч. 24 м.
    Битрейт : 33 бит/сек
    Count of elements : 828
    Размер потока : 20, 8 Кбайт (0%)
    Язык : English
    Default : Нет
    Forced : Нет
    Текст #2
    Идентификатор : 5
    Формат : UTF-8
    Идентификатор кодека : S_TEXT/UTF8
    Идентификатор кодека/Информация : UTF-8 Plain Text
    Продолжительность : 1 ч. 25 м.
    Битрейт : 40 бит/сек
    Count of elements : 1039
    Размер потока : 25, 4 Кбайт (0%)
    Заголовок : SDH
    Язык : English
    Default : Нет
    Forced : Нет
    Меню
    00: 00: 00.000 : en: Chapter 1
    00: 05: 31.998 : en: Chapter 2
    00: 09: 30.236 : en: Chapter 3
    00: 15: 37.353 : en: Chapter 4
    00: 19: 23.954 : en: Chapter 5
    00: 23: 38.375 : en: Chapter 6
    00: 28: 57.194 : en: Chapter 7
    00: 34: 14.970 : en: Chapter 8
    00: 36: 58.258 : en: Chapter 9
    00: 40: 25.673 : en: Chapter 10
    00: 43: 56.133 : en: Chapter 11
    00: 48: 47.633 : en: Chapter 12
    00: 53: 20.489 : en: Chapter 13
    00: 59: 39.117 : en: Chapter 14
    01: 02: 35.085 : en: Chapter 15
    01: 07: 20.161 : en: Chapter 16
    01: 11: 33.331 : en: Chapter 17
    01: 16: 26.999 : en: Chapter 18
    01: 21: 35.057 : en: Chapter 19
    01: 26: 54.334 : en: Chapter 20
    Скриншоты


    Онлайн видео Лес призраков


    Размер скачиваемого торрента: 10.63 GB (11415397088 Bytes)

    Лес призраков/The Forest (2016) BDRip 1080p от ExKinoRay | iTunes
    загрузка...
    Рейтинг →
     (голосов: 1, оценка 4/5, голосовать можно 1 раз )

    Другие торренты по теме:

  • Лес призраков / The Forest (2015) WEBRip | Чистый звук
  • Лес призраков / The Forest (2015) WEBRip | Line
  • Лес призраков / The Forest (2016) WEB-DL 1080p | Line
  • Лес призраков / The Forest (2016) HDRip от MegaPeer | iTunes
  • Лес призраков / The Forest (2016)
  • Лес призраков / The Forest (2016) BDRip-AVC от HELLYWOOD | iTunes


    • Комментарии (0):

      Информация

      Информация

        Посетители, находящиеся в группе Гости, не могут оставлять комментарии в данной новости.

        ↓ Меню



        ↓ Опрос

        А Вы добавили сайт в закладки?
        Да
        Не


        Top 10 за месяц (Фильмы)