Авторизация | Регистрация
↓ Случайные торренты
Воскресение - 6 альбомов (1992-2005) M4A
Тарзун, позор джунглей / Tarzoon, la honte de la jungle / Tarzoon: Shame of the Jungle (1975) DVD5 | A | Custom скачать через торрент бесплатно
Вызовите акушерку / Call The Midwife (2012) HDTVRip | Культура
CuteFTP Pro 9.0.5.0007 (2013) PC | RePack Portable by D!akov скачать через торрент бесплатно
Киево-Печерская Лавра (2013) DVDRip от -=HD-NET=-
Салем / Salem (2014) WEB-DL 720p | NewStudio скачать через торрент бесплатно
Лунный свет 3: Дни вечности / Lichtmond 3: Days of Eternity (2014) BDRip 1080p от Ash61 | 3D-Video | halfOU скачать через торрент бесплатно
» » Смокинг / The Tuxedo (2002) WEB-DLRip-AVC | D скачать торрент бесплатно


    Смокинг / The Tuxedo (2002) WEB-DLRip-AVC | D скачать торрент бесплатно

    Опубликовал: Админ | Дата: 11-05-2016, 13:33 | Просмотров: 57



    Создали в: США/Blue Train Productions, DreamWorks SKG, Parkes+MacDonald Image Nation
    Категория жанра: Боевик, Комедия, Приключения
    Главный режиссер: Кевин Донован
    Актеры: Джеки Чан, Дженнифер Лав Хьюитт, Джейсон Айзекс, Деби Мазар, Питер Стормару, Ричи Костер и др.

    Описание фильма

    Незадачливый водитель такси Джимми Тонг (Чан) неожиданно получает прекрасную работу. Джимми становится шофером у лощеного дэнди-миллионера Кларка Девлина (Айзекс). Новая престижная должность была тихой и спокойной до тех пор, пока водила не обнаружил, что его важный босс - шпион экстра класса! После того, как неизвестные злодеи отправляют Девлина в больницу, Джимми решает... подменить раненого шефа. Теперь Тонг примерит на себя не только личину секретного агента, но и смокинг Девлина, который на самом деле является уникальным супер-оружием ценой в 3 миллиарда долларов!
    Время просмотра: 01: 38: 45
    Качество фильма видео: WEB-DLRip-AVC
    Перевод текста: Дублированный
    Субтитры: Отсутствуют
    Информация о видео: AVC, 1024x576 (16: 9), 23.976 fps, 2 323 Kbps (0.164 bit/pixel)
    Информация о звуке #1: AC-3, 48.0 KHz, 6 ch, 448 Kbps, CBR (Russian)
    Информация о звуке #2: AC-3, 48.0 KHz, 6 ch, 384 Kbps, CBR (English)
    Mediainfo:

    Формат : Matroska
    Версия формата : Version 2
    Размер файла : 2, 18 Гбайт
    Продолжительность : 1 ч. 38 м.
    Общий поток : 3153 Кбит/сек
    Дата кодирования : UTC 2016-05-09 10: 36: 14
    Программа кодирования : mkvmerge v5.3.0 (;I could have danced;) built on Feb 9 2012 10: 38: 07
    Библиотека кодирования : libebml v1.2.3 + libmatroska v1.3.0
    Attachment : Yes
    Видео
    Идентификатор : 1
    Формат : AVC
    Формат/Информация : Advanced Video Codec
    Профиль формата : High@L4.1
    Параметр CABAC формата : Да
    Параметр ReFrames формата : 10 кадров
    Идентификатор кодека : V_MPEG4/ISO/AVC
    Продолжительность : 1 ч. 38 м.
    Битрейт : 2323 Кбит/сек
    Ширина : 1024 пикселя
    Высота : 576 пикселей
    Соотношение сторон : 16: 9
    Режим частоты кадров : Постоянный
    Частота кадров : 23, 976 кадра/сек
    Цветовое пространство : YUV
    Субдискретизация насыщенности : 4: 2: 0
    Битовая глубина : 8 бит
    Тип развёртки : Прогрессивная
    Бит/(Пиксели*Кадры) : 0.164
    Размер потока : 1, 56 Гбайт (72%)
    Библиотека кодирования : x264 core 146 r2538 121396c
    Настройки программы : cabac=1/ref=10/deblock=1: -2: -1/analyse=0x3: 0x133/me=umh/subme=10/psy=1/psy_rd=1.00: 0.15/mixed_ref=1/me_range=32/chroma_me=1/trellis=2/8x8dct=1/cqm=0/deadzone=21, 11/fast_pskip=0/chroma_qp_offset=-3/threads=12/lookahead_threads=2/sliced_threads=0/nr=0/decimate=0/interlaced=0/bluray_compat=0/constrained_intra=0/bframes=8/b_pyramid=2/b_adapt=2/b_bias=0/direct=3/weightb=1/open_gop=0/weightp=2/keyint=240/keyint_min=23/scenecut=40/intra_refresh=0/rc=2pass/mbtree=0/bitrate=2323/ratetol=1.0/qcomp=0.60/qpmin=0/qpmax=69/qpstep=4/cplxblur=20.0/qblur=0.5/ip_ratio=1.40/pb_ratio=1.30/aq=1: 1.00
    Default : Да
    Forced : Нет
    Аудио #1
    Идентификатор : 2
    Формат : AC-3
    Формат/Информация : Audio Coding 3
    Расширение режима : CM (complete main)
    Параметр Endianness формата : Big
    Идентификатор кодека : A_AC3
    Продолжительность : 1 ч. 38 м.
    Вид битрейта : Постоянный
    Битрейт : 448 Кбит/сек
    Каналы : 6 каналов
    Расположение каналов : Front: L C R, Side: L R, LFE
    Частота : 48, 0 КГц
    Битовая глубина : 16 бит
    Метод сжатия : С потерями
    Задержка видео : 21 с.
    Размер потока : 316 Мбайт (14%)
    Язык : Russian
    Default : Нет
    Forced : Нет
    Аудио #2
    Идентификатор : 3
    Формат : AC-3
    Формат/Информация : Audio Coding 3
    Расширение режима : CM (complete main)
    Параметр Endianness формата : Big
    Идентификатор кодека : A_AC3
    Продолжительность : 1 ч. 38 м.
    Вид битрейта : Постоянный
    Битрейт : 384 Кбит/сек
    Каналы : 6 каналов
    Расположение каналов : Front: L C R, Side: L R, LFE
    Частота : 48, 0 КГц
    Битовая глубина : 16 бит
    Метод сжатия : С потерями
    Размер потока : 271 Мбайт (12%)
    Язык : English
    Default : Нет
    Forced : Нет

    Скриншоты


    Онлайн видео Смокинг


    Размер скачиваемого торрента: 2.18 GB (2335470267 Bytes)

    Смокинг/The Tuxedo (2002) WEB-DLRip-AVC | D
    загрузка...
    Рейтинг →
     (голосов: 1, оценка 4/5, голосовать можно 1 раз )

    Другие торренты по теме:

  • Смокинг / The Tuxedo (2002) HDTVRip-AVC от New-Team скачать через торрент бесплатно
  • АНОНСЫ МОИХ РИПОВ! ЛУЧШИЕ ФИЛЬМЫ И СЕРИАЛЫ ВСЕЙ ПЛАНЕТЫ! Подпишись :) Смокинг / The Tuxedo Создали в: 2002 Снималось в: США Категория жанра: фантастика, боевик, триллер, комедия Время просмотра: 01:38:17 Перевод текста: профессиональный (полное дублирование) Русские субтитры: нет Главный режиссер: Кевин Донован / Kevin Donovan Актеры: Джеки Чан, Дженнифер Лав Хьюитт, Джейсон Айзекс, Деби Мейзар, Ричи Костер, Петер Стормаре, Миа Коттет, Романи Малко, Дэниэл Кэш,


    • Комментарии (0):

      Информация

      Информация

        Посетители, находящиеся в группе Гости, не могут оставлять комментарии в данной новости.

        ↓ Меню



        Top 10 за неделю (Фильмы)


        ↓ Последние комменты

        Новость: Надежда Михайловских - Ошалелая судьба торрент скачать бесплатно
        Автор: Анна Васильевна
        Эта Надежда Михайловских поёт не свои песни!!! Это не певица! Она просто тупо перепевает в этом сборнике песни шансонных певиц Кати Огонёк, Маргариты Орской, Вороваек и др. Зачем делает альбом из чужих песен?? Пела бы дома или в караоке. Ещё и ужасно их перепевает!! А то мы тут думаем, что это новые песни и новые альбомы!!Ставлю ей 1
        Новость: Надежда Михайловских - Девичник торрент скачать бесплатно
        Автор: Анна Васильевна
        Эта Надежда Михайловских поёт не свои песни!!! Это не певица! Она просто тупо перепевает в этом сборнике песни шансонных певиц Кати Огонёк, Маргариты Орской, Вороваек и др. Зачем делает альбом из чужих песен?? Пела бы дома или в караоке. Ещё и ужасно их перепевает!! А то мы тут думаем, что это новые песни и новые альбомы!!Ставлю ей 1
        Новость: Черепашки-ниндзя 2 / Teenage Mutant Ninja Turtles: Out of the Shadows (2016) BDRip 720p от HELLYWOOD | Лицензия скачать торрент бесплатно
        Автор: Benitoches
        Hello everyone! I've been observing this forum for the long time. Here and now is time to register as new user. Every single adventure has its beginning - and Here is mine :) Hope we can help each other sharing knowledge, time and humour :)
        Новость: Финансовый монстр / Money Monster (2016) BDRip | Лицензия скачать торрент бесплатно
        Автор: Stephancync
        Класс фильм Бриджет Джонс 3 смотрите пиратскую версию по ссылке goo.by/wMe6N3
        Новость: Tor Browser Bundle 2.3.25-10 (2013) РС торрент скачать бесплатно
        Автор: fregat
        Добрый день, а что с ним не так?
        Новость: Tor Browser Bundle 2.3.25-10 (2013) РС торрент скачать бесплатно
        Автор: kornet366
        Админ добрый день АдминПожалуйста обновите файл ( Tor Browser Bundle 3.5 RC 1 (2013) PC торрент скачать бесплатно) он мне нужен другие нет.kornet366
        Новость: Голодные игры / The Hunger Games (2012) скачать торрент бесплатно
        Автор: fregat
        Варкрафт, подойдет.
        Новость: Голодные игры / The Hunger Games (2012) скачать торрент бесплатно
        Автор: AliceEl
        Здравствуйте форумчане! Вопрос немного не в тему )) Хотелось бы посмотреть вечерком киношку хорошую. Порекомендуйте какое-нибудь кино глянуть.
        Новость: Дэдпул / DeadPool (2016) качество CAMRip PROPER скачать торрент бесплатно
        Автор: DouglasNelp
        Фильмец то вообще класный и спасибо нашим Российским пиратам, что уже украли в HD качестве и выложили у себя на сайте, вот тут есть ссылка tr.im/tSyRl .
        Новость: Дэдпул / DeadPool (2016) качество CAMRip PROPER скачать торрент бесплатно
        Автор: AbrahamNex
        Фильмец то вообще класс и спасибо нашим Российским пиратам, что уже украли в HD качестве и выложили у себя на сайте, вот тут есть ссылка tr.im/tSyRl .


        ↓ Опрос

        А Вы добавили сайт в закладки?
        Да
        Не