.
Авторизация | Регистрация
Хочешь лучшие торренты? Добавь свой email!
Добавить
» » Доброе утро (1955) SATRip от New-Team торрент скачать бесплатно




    Доброе утро (1955) SATRip от New-Team торрент скачать бесплатно

    Опубликовал: Админ | Дата: 11-05-2016, 13:33 | Просмотров: 149



    Снималось в: СССР
    Создали в: Мосфильм
    Категория жанра: драма, комедия
    Создали в: 26 мая 1955
    Время просмотра: 01: 25: 33
    Перевод текста: Не требуется
    Субтитры подготовлены: нет
    Оригинальная аудиодорожка: русский
    Главный режиссер: Андрей Фролов

    Актеры

    Татьяна Конюхова, Изольда Извицкая, Юрий Саранцев, Владимир Андреев, Лев Дуров, Евгений Матвеев, Иван Любезнов, Афанасий Белов, Нина Агапова...
    Полный список актёров
    Описание:
    Тихая, застенчивая Катя, приехавшая из-под Курска с подругами, оказывается в группе молодых строителей шоссейной дороги. Ей нравится веселый парень, известный экскаваторщик Вася Плотников. Но ему кружит голову только его личный успех на производстве и у девушек. Катя переходит на другой участок работы, где быстро проявляется ее твердый характер, и становится передовиком строительства.



    Источник: DVB
    Качество фильма видео: SATRip
    Тип видео видео: AVI
    Информация о видео: 688x512 (4: 3), 25 fps, XviD ~ 1616 kbps avg, 0.184 bit/pixel
    Информация о звуке: 48 kHz, Dolby Digital AC3 2.0, 192 kbps
    Раздача от:
    MediaInfo

    Общее
    Полное имя : Dobroe.utro.1955.SATRip_New-team_by_AVP_Studio.avi
    Формат : AVI
    Формат/Информация : Audio Video Interleave
    Размер файла : 1, 09 Гбайт
    Продолжительность : 1 ч. 25 м.
    Общий поток : 1818 Кбит/сек
    Программа кодирования : VirtualDubMod 1.5.10.3 | www.virtualdub-fr.org || (build 2550/release)
    Библиотека кодирования : VirtualDubMod build 2550/release
    Видео
    Идентификатор : 0
    Формат : MPEG-4 Visual
    Профиль формата : Advanced Simple@L5
    Параметр BVOP формата : 1
    Параметр QPel формата : Нет
    Параметр GMC формата : Без точки перехода
    Параметр матрицы формата : Выборочная
    Идентификатор кодека : XVID
    Идентификатор кодека/Подсказка : XviD
    Продолжительность : 1 ч. 25 м.
    Битрейт : 1616 Кбит/сек
    Ширина : 688 пикселей
    Высота : 512 пикселей
    Соотношение сторон : 4: 3
    Частота кадров : 25, 000 кадров/сек
    Цветовое пространство : YUV
    Субдискретизация насыщенности : 4: 2: 0
    Битовая глубина : 8 бит
    Тип развёртки : Прогрессивная
    Метод сжатия : С потерями
    Бит/(Пиксели*Кадры) : 0.184
    Размер потока : 989 Мбайт (89%)
    Библиотека кодирования : XviD 1.2.1 (UTC 2008-12-04)
    Аудио
    Идентификатор : 1
    Формат : AC-3
    Формат/Информация : Audio Coding 3
    Расширение режима : CM (complete main)
    Параметр Endianness формата : Big
    Идентификатор кодека : 2000
    Продолжительность : 1 ч. 25 м.
    Вид битрейта : Постоянный
    Битрейт : 192 Кбит/сек
    Каналы : 2 канала
    Расположение каналов : Front: L R
    Частота : 48, 0 КГц
    Частота кадров : 31, 250 кадров/сек (1536 spf)
    Метод сжатия : С потерями
    Размер потока : 117 Мбайт (11%)
    Выравнивание : Разделение по промежуткам
    Продолжительность промежутка : 40 мс. (1, 00 видеокадр)
    Время предзагрузки промежутка : 500 мс

    Скриншоты



    Залил: AVPStudio

    Онлайн видео Доброе утро (1955) SATRip от New


    Размер скачиваемого торрента: 1.09 GB (1166551040 Bytes)

    Доброе утро (1955) SATRip от New-Team
    загрузка...
    Рейтинг →
     (голосов: 1, оценка 5/5, голосовать можно 1 раз )

    Другие торренты по теме:

  • Доброе утро / Morning Glory (2010) BDRip-AVC от ExKinoRay
  • Доброе утро, Вьетнам! / Good Morning, Vietnam! (1987) BDRip 1080p от FREEISLAND
  • Доброе утро, господин Фидельман! / Boker tov adon Fidelman (2011) DVDRip от ClubTorrent
  • Доброе утро, Вавилон / Good Morning, Babylon (1987) DVDRip-AVC | P2 скачать через торрент бесплатно
  • Доброе утро, Вьетнам / Good Morning, Vietnam (1987 ) BDRip от VANITYFAIR | A скачать через торрент бесплатно
  • Доброе утро, Вьетнам! / Good Morning, Vietnam! (1987) BDRip-AVC | iPad | D,A скачать через торрент бесплатно
  • Доброе утро / 1955 / РУ / HDTV (1080i)


    • Комментарии (0):

      Информация

      Информация

        Посетители, находящиеся в группе Гости, не могут оставлять комментарии в данной новости.

        ↓ Меню



        ↓ Опрос

        А Вы добавили сайт в закладки?
        Да
        Не


        Top 10 за месяц (Фильмы)