.
Авторизация | Регистрация
Хочешь лучшие торренты? Добавь свой email!
Добавить
» » Образцовый самец 2 / Zoolander 2 (2016) BDRip 1080p от ExKinoRay | Line торрент скачать бесплатно




    Образцовый самец 2 / Zoolander 2 (2016) BDRip 1080p от ExKinoRay | Line торрент скачать бесплатно

    Опубликовал: Админ | Дата: 15-05-2016, 05:00 | Просмотров: 56



    Детально о кино
    Русское название: Образцовый самец 2
    Русское название в мировом прокате: Zoolander 2
    Создали в: 2016
    Категория жанра: Комедия
    Главный режиссер: Бен Стиллер

    Актеры
    Бен Стиллер, Оуэн Уилсон, Пенелопа Крус, Кристен Уиг, Уилл Феррелл, Бенедикт Камбербэтч, Оливия Манн, Кристин Тейлор, Ариана Гранде, Джастин Бибер, Билли Зейн, Мадалина Диана Генея, Сайрус Арнольд, Фред Армисен, Канье Уэст, Антонио Те Майохо, Мика, Льюис Хэмилтон, Евгения Темпеста, Алан Капелли Гетц

    Сюжет фильма

    Триумфальное возвращение на подиумы когда-то топовых, а ныне слегка потрепанных мужчин-моделей Дерека Зуландера и Ханселя в комедии о мире, где для обретения всеобщей популярности достаточно одного селфи.

    Снималось в: США
    Киностудия: Red Hour Films, Scott Rudin Productions
    Время просмотра: 01: 41: 47
    Перевод текста: Дублированный | Чистый звук
    Файл
    Кодек для видео: MPEG-4
    Качество фильма: BDRip 1080p
    Информация о видео: 1920x804, 12.3 Mbit/s, 23.976 fps
    Информация о звуке:
    Информация о звуке #01: 48 kHz, AC3, 2.0, 384 Kbps | Дублированный, SDI-Media |
    Информация о звуке #02: 48 kHz, DTS, 5.1, 1510 kbps | Оригинал |
    Субтитры: Английские
    Релиз подготовил: Автор релиза:

    MI
    Общее
    Уникальный идентификатор : 203910331815763904702125066658307623485 (0x9967B38F0AA6B6F1AFBC5E17E9E3CA3D)
    Полное имя : G: VideoZoolander.2.2016.BDRip.1080p.ExKinoRay.mkv
    Формат : Matroska
    Версия формата : Version 4/Version 2
    Размер файла : 10, 1 Гбайт
    Продолжительность : 1 ч. 41 м.
    Общий поток : 14, 2 Мбит/сек
    Название фильма : Zoolander.2.2016.BDRip.1080p.ExKinoRay
    Дата кодирования : UTC 2016-05-14 13: 46: 40
    Программа кодирования : mkvmerge v8.3.0 (;Over the Horizon;) 64bit
    Библиотека кодирования : libebml v1.3.1 + libmatroska v1.4.2
    Видео
    Идентификатор : 1
    Формат : AVC
    Формат/Информация : Advanced Video Codec
    Профиль формата : High@L4.1
    Параметр CABAC формата : Да
    Параметр ReFrames формата : 5 кадров
    Идентификатор кодека : V_MPEG4/ISO/AVC
    Продолжительность : 1 ч. 41 м.
    Битрейт : 12, 3 Мбит/сек
    Ширина : 1920 пикселей
    Высота : 804 пикселя
    Соотношение сторон : 2, 40: 1
    Режим частоты кадров : Постоянный
    Частота кадров : 23, 976 (24000/1001) кадра/сек
    Цветовое пространство : YUV
    Субдискретизация насыщенности : 4: 2: 0
    Битовая глубина : 8 бит
    Тип развёртки : Прогрессивная
    Бит/(Пиксели*Кадры) : 0.332
    Размер потока : 8, 75 Гбайт (87%)
    Библиотека кодирования : x264 core 146 r2538 121396c
    Настройки программы : cabac=1/ref=5/deblock=1: -3: -3/analyse=0x3: 0x133/me=tesa/subme=11/psy=1/psy_rd=1.04: 0.00/mixed_ref=1/me_range=32/chroma_me=1/trellis=2/8x8dct=1/cqm=0/deadzone=21, 11/fast_pskip=0/chroma_qp_offset=-2/threads=48/lookahead_threads=6/sliced_threads=0/nr=0/decimate=0/interlaced=0/bluray_compat=0/constrained_intra=0/bframes=10/b_pyramid=2/b_adapt=2/b_bias=0/direct=3/weightb=1/open_gop=0/weightp=2/keyint=240/keyint_min=23/scenecut=40/intra_refresh=0/rc_lookahead=150/rc=crf/mbtree=0/crf=15.6/qcomp=0.60/qpmin=0/qpmax=69/qpstep=4/vbv_maxrate=62500/vbv_bufsize=78125/crf_max=0.0/nal_hrd=none/filler=0/ip_ratio=1.40/pb_ratio=1.30/aq=1: 0.80
    Язык : English
    Default : Да
    Forced : Нет
    Аудио #1
    Идентификатор : 2
    Формат : AC-3
    Формат/Информация : Audio Coding 3
    Расширение режима : CM (complete main)
    Параметр Endianness формата : Big
    Идентификатор кодека : A_AC3
    Продолжительность : 1 ч. 41 м.
    Вид битрейта : Постоянный
    Битрейт : 384 Кбит/сек
    Каналы : 2 канала
    Расположение каналов : Front: L R
    Частота : 48, 0 КГц
    Частота кадров : 31, 250 кадров/сек (1536 spf)
    Метод сжатия : С потерями
    Размер потока : 280 Мбайт (3%)
    Заголовок : DUB SDI-Media
    Язык : Russian
    Default : Да
    Forced : Нет
    Аудио #2
    Идентификатор : 3
    Формат : DTS
    Формат/Информация : Digital Theater Systems
    Режим : 16
    Параметр Endianness формата : Big
    Идентификатор кодека : A_DTS
    Продолжительность : 1 ч. 41 м.
    Вид битрейта : Постоянный
    Битрейт : 1509 Кбит/сек
    Каналы : 6 каналов
    Расположение каналов : Front: L C R, Side: L R, LFE
    Частота : 48, 0 КГц
    Частота кадров : 93, 750 кадра/сек (512 spf)
    Битовая глубина : 24 бит
    Метод сжатия : С потерями
    Размер потока : 1, 07 Гбайт (11%)
    Язык : English
    Default : Нет
    Forced : Нет
    Текст #1
    Идентификатор : 4
    Формат : UTF-8
    Идентификатор кодека : S_TEXT/UTF8
    Идентификатор кодека/Информация : UTF-8 Plain Text
    Продолжительность : 1 ч. 33 м.
    Битрейт : 64 бит/сек
    Count of elements : 1380
    Размер потока : 44, 2 Кбайт (0%)
    Заголовок : Full
    Язык : English
    Default : Нет
    Forced : Нет
    Текст #2
    Идентификатор : 5
    Формат : UTF-8
    Идентификатор кодека : S_TEXT/UTF8
    Идентификатор кодека/Информация : UTF-8 Plain Text
    Продолжительность : 1 ч. 34 м.
    Битрейт : 67 бит/сек
    Count of elements : 1643
    Размер потока : 46, 9 Кбайт (0%)
    Заголовок : SDH
    Язык : English
    Default : Нет
    Forced : Нет
    Меню
    00: 00: 00.000 : en: Chapter 1
    00: 07: 40.877 : en: Chapter 2
    00: 12: 25.370 : en: Chapter 3
    00: 15: 26.217 : en: Chapter 4
    00: 22: 49.868 : en: Chapter 5
    00: 28: 41.136 : en: Chapter 6
    00: 31: 07.074 : en: Chapter 7
    00: 36: 42.617 : en: Chapter 8
    00: 42: 54.614 : en: Chapter 9
    00: 48: 54.974 : en: Chapter 10
    00: 56: 57.039 : en: Chapter 11
    01: 07: 00.225 : en: Chapter 12
    01: 14: 33.010 : en: Chapter 13
    01: 18: 17.067 : en: Chapter 14
    01: 23: 42.226 : en: Chapter 15
    01: 33: 15.548 : en: Chapter 16
    Скриншоты


    Онлайн видео Образцовый самец 2


    Размер скачиваемого торрента: 10.10 GB (10840188523 Bytes)

    Образцовый самец 2/Zoolander 2 (2016) BDRip 1080p от ExKinoRay | Line
    загрузка...
    Рейтинг →
     (голосов: 1, оценка 3/5, голосовать можно 1 раз )

    Другие торренты по теме:

  • Образцовый самец / Zoolander (2001) BDRip 720p
  • Образцовый самец / Zoolander / 2001 / 2 х ПМ / BDRip
  • Образцовый самец / Zoolander / 2001 / ПМ / HDRip
  • Образцовый самец 2 / Zoolander 2 (2016) BDRip 720p | D | Line
  • Образцовый самец 2 / Zoolander 2 (2016) HDRip | D | Line
  • Образцовый самец 2 / Zoolander 2 (2016) BDRemux 1080p от ivandubskoj | D | Line
  • Образцовый самец 2 / Zoolander 2 (2016)
  • Образцовый самец 2 / Zoolander 2 (2016) BDRemux 1080p от ExKinoRay | iTunes


    • Комментарии (0):

      Информация

      Информация

        Посетители, находящиеся в группе Гости, не могут оставлять комментарии в данной новости.

        ↓ Меню



        ↓ Опрос

        А Вы добавили сайт в закладки?
        Да
        Не


        Top 10 за месяц (Фильмы)