.
Авторизация | Регистрация
Хочешь лучшие торренты? Добавь свой email!
Добавить
» » Земля будущего / Tomorrowland (2015) BDRemux 1080p от ExKinoRay | Лицензия торрент скачать бесплатно




    Земля будущего / Tomorrowland (2015) BDRemux 1080p от ExKinoRay | Лицензия торрент скачать бесплатно

    Опубликовал: Админ | Дата: 17-05-2016, 05:00 | Просмотров: 84



    Детально о кино
    Русское название: Земля будущего
    Русское название в мировом прокате: Tomorrowland
    Создали в: 2015
    Категория жанра: Фантастика, боевик, детектив, приключения
    Главный режиссер: Брэд Берд

    Актеры
    Бритт Робертсон, Джордж Клуни, Рэффи Кэссиди, Хью Лори, Тим МакГроу, Кэтрин Хан, Кигэн-Майкл Ки, Кристофер Бауэр, Томас Робинсон, Пирс Гэнон, Мэттью МакКоулл, Джуди Грир, Мэтт Андерсон, Майкл Джаккино, Д. Хэрлан Катшелл, Шило Нельсон, Ксанта Рэдли, Дэвид Найкл, Пол МакДжиллион, Пирс Виссер

    Сюжет фильма

    Когда в руки к молодой девушке, жаждущей новых приключений, попадает загадочный предмет, открывающий доступ в параллельную реальность, она вынуждена обратиться за помощью к циничному гению-изобретателю Фрэнку. Кейси должна убедить бывшего вундеркинда раскрыть ей тайну загадочного места, находящегося вне привычной реальности, известного как Земля будущего, и убедить Фрэнка вернуться туда, откуда его однажды изгнали…

    Снималось в: США, Испания
    Киностудия: A113, Babieka, Walt Disney Pictures
    Время просмотра: 02: 10: 03
    Перевод текста: Дублированный | Лицензия
    Файл
    Кодек для видео: MPEG-4
    Качество фильма: BDRemux 1080p
    Информация о видео: 1920x1080, 26.4 Mbit/s, 23.976 fps
    Информация о звуке:
    Информация о звуке #01: 48 kHz, DTS, 5.1, 768 Kbps | Дублированный |
    Информация о звуке #02: 48 kHz, DTS, 5.1, 1510 Kbps | Дублированный |
    Информация о звуке #03: 48 kHz, DTS-HD MA, 5.1, 4839 kbps | Оригинал |
    Субтитры: Русские (forced, full), английские
    Релиз подготовил: Автор релиза:
    MI
    Общее
    Уникальный идентификатор : 221232401022875595188571237514707162247 (0xA66FCF8229774D19991F739110CF5487)
    Полное имя : G: VideoTommorowlandTomorrowland.2015.BDREMUX.1080p.ExKinoRay.mkv
    Формат : Matroska
    Версия формата : Version 4/Version 2
    Размер файла : 30, 5 Гбайт
    Продолжительность : 2 ч. 10 м.
    Режим общего битрейта : Переменный
    Общий поток : 33, 5 Мбит/сек
    Название фильма : Tomorrowland.2015.BDREMUX.1080p.ExKinoRay
    Дата кодирования : UTC 2016-05-16 23: 42: 29
    Программа кодирования : mkvmerge v8.3.0 (;Over the Horizon;) 64bit
    Библиотека кодирования : libebml v1.3.1 + libmatroska v1.4.2
    Видео
    Идентификатор : 1
    Формат : AVC
    Формат/Информация : Advanced Video Codec
    Профиль формата : High@L4.1
    Параметр CABAC формата : Да
    Параметр ReFrames формата : 4 кадра
    Идентификатор кодека : V_MPEG4/ISO/AVC
    Продолжительность : 2 ч. 10 м.
    Вид битрейта : Переменный
    Битрейт : 26, 4 Мбит/сек
    Максимальный битрейт : 34, 0 Мбит/сек
    Ширина : 1920 пикселей
    Высота : 1080 пикселей
    Соотношение сторон : 16: 9
    Режим частоты кадров : Постоянный
    Частота кадров : 23, 976 (24000/1001) кадра/сек
    Цветовое пространство : YUV
    Субдискретизация насыщенности : 4: 2: 0
    Битовая глубина : 8 бит
    Тип развёртки : Прогрессивная
    Бит/(Пиксели*Кадры) : 0.531
    Размер потока : 24, 0 Гбайт (79%)
    Заголовок : Tomorrowland.2015.BDREMUX.1080p.ExKinoRay.***селезень***
    Язык : English
    Default : Да
    Forced : Нет
    Аудио #1
    Идентификатор : 2
    Формат : DTS
    Формат/Информация : Digital Theater Systems
    Режим : 16
    Параметр Endianness формата : Big
    Идентификатор кодека : A_DTS
    Продолжительность : 2 ч. 10 м.
    Вид битрейта : Постоянный
    Битрейт : 768 Кбит/сек
    Каналы : 6 каналов
    Расположение каналов : Front: L C R, Side: L R, LFE
    Частота : 48, 0 КГц
    Частота кадров : 93, 750 кадра/сек (512 spf)
    Битовая глубина : 24 бит
    Метод сжатия : С потерями
    Размер потока : 714 Мбайт (2%)
    Заголовок : DUB License
    Язык : Russian
    Default : Да
    Forced : Нет
    Аудио #2
    Идентификатор : 3
    Формат : DTS
    Формат/Информация : Digital Theater Systems
    Режим : 16
    Параметр Endianness формата : Big
    Идентификатор кодека : A_DTS
    Продолжительность : 2 ч. 10 м.
    Вид битрейта : Постоянный
    Битрейт : 1510 Кбит/сек
    Каналы : 6 каналов
    Расположение каналов : Front: L C R, Side: L R, LFE
    Частота : 48, 0 КГц
    Частота кадров : 93, 750 кадра/сек (512 spf)
    Битовая глубина : 24 бит
    Метод сжатия : С потерями
    Размер потока : 1, 37 Гбайт (5%)
    Заголовок : DUB
    Язык : Ukrainian
    Default : Нет
    Forced : Нет
    Аудио #3
    Идентификатор : 4
    Формат : DTS
    Формат/Информация : Digital Theater Systems
    Профиль формата : MA/Core
    Режим : 16
    Параметр Endianness формата : Big
    Идентификатор кодека : A_DTS
    Продолжительность : 2 ч. 10 м.
    Вид битрейта : Переменный/Постоянный
    Битрейт : 4839 Кбит/сек/1509 Кбит/сек
    Каналы : 8 каналов/6 каналов
    Расположение каналов : Front: L C R, Side: L R, Back: L R, LFE/Front: L C R, Side: L R, LFE
    Частота : 48, 0 КГц
    Частота кадров : 93, 750 кадра/сек (512 spf)
    Битовая глубина : 24 бит
    Метод сжатия : Без потерь/Lossy
    Размер потока : 4, 40 Гбайт (14%)
    Заголовок : Original
    Язык : English
    Default : Нет
    Forced : Нет
    Текст #1
    Идентификатор : 5
    Формат : UTF-8
    Идентификатор кодека : S_TEXT/UTF8
    Идентификатор кодека/Информация : UTF-8 Plain Text
    Продолжительность : 44 м.
    Битрейт : 0 бит/сек
    Count of elements : 3
    Размер потока : 194 байт (0%)
    Заголовок : Forced
    Язык : Russian
    Default : Да
    Forced : Нет
    Текст #2
    Идентификатор : 6
    Формат : UTF-8
    Идентификатор кодека : S_TEXT/UTF8
    Идентификатор кодека/Информация : UTF-8 Plain Text
    Продолжительность : 1 ч. 58 м.
    Битрейт : 75 бит/сек
    Count of elements : 1457
    Размер потока : 65, 9 Кбайт (0%)
    Заголовок : Full
    Язык : Russian
    Default : Нет
    Forced : Нет
    Текст #3
    Идентификатор : 7
    Формат : UTF-8
    Идентификатор кодека : S_TEXT/UTF8
    Идентификатор кодека/Информация : UTF-8 Plain Text
    Продолжительность : 1 ч. 58 м.
    Битрейт : 53 бит/сек
    Count of elements : 1800
    Размер потока : 46, 7 Кбайт (0%)
    Язык : English
    Default : Нет
    Forced : Нет
    Текст #4
    Идентификатор : 8
    Формат : UTF-8
    Идентификатор кодека : S_TEXT/UTF8
    Идентификатор кодека/Информация : UTF-8 Plain Text
    Продолжительность : 1 ч. 58 м.
    Битрейт : 48 бит/сек
    Count of elements : 1293
    Размер потока : 41, 7 Кбайт (0%)
    Язык : English
    Default : Нет
    Forced : Нет
    Меню
    00: 00: 00.000 : en: 00: 00: 00.000
    00: 16: 12.013 : en: 00: 16: 12.013
    00: 21: 56.565 : en: 00: 21: 56.565
    00: 28: 52.189 : en: 00: 28: 52.189
    00: 37: 37.046 : en: 00: 37: 37.046
    00: 46: 35.418 : en: 00: 46: 35.418
    00: 55: 01.048 : en: 00: 55: 01.048
    01: 11: 48.471 : en: 01: 11: 48.471
    01: 19: 18.087 : en: 01: 19: 18.087
    01: 26: 45.033 : en: 01: 26: 45.033
    01: 30: 57.702 : en: 01: 30: 57.702
    01: 38: 05.296 : en: 01: 38: 05.296
    01: 49: 50.501 : en: 01: 49: 50.501
    01: 56: 11.298 : en: 01: 56: 11.298
    02: 01: 26.946 : en: 02: 01: 26.946
    Скриншоты


    Онлайн видео Земля будущего


    Размер скачиваемого торрента: 30.45 GB (32696353426 Bytes)

    Земля будущего/Tomorrowland (2015) BDRemux 1080p от ExKinoRay | Лицензия
    загрузка...
    Рейтинг →
     (голосов: 1, оценка 3/5, голосовать можно 1 раз )

    Другие торренты по теме:

  • Земля будущего (2015) HDRip
  • Земля будущего / Tomorrowland (2015) CAMRip
  • Земля будущего / Tomorrowland (2015) CAMRip от torrentfilm
  • Земля будущего / Tomorrowland (2015) CAMRip *PROPER*
  • Земля будущего / Tomorrowland (2015) CAMRip *PROPER* V2
  • Земля будущего / Tomorrowland (2015) CAMRip *PROPER* V2
  • Земля будущего / Tomorrowland (2015) TS
  • Земля будущего / Tomorrowland (2015) TS


    • Комментарии (0):

      Информация

      Информация

        Посетители, находящиеся в группе Гости, не могут оставлять комментарии в данной новости.

        ↓ Меню



        ↓ Опрос

        А Вы добавили сайт в закладки?
        Да
        Не


        Top 10 за месяц (Фильмы)