.
Авторизация | Регистрация




Дьявол / Diablo (2015) BDRip-AVC | L2 скачать торрент бесплатно

Опубликовал: Админ | Дата: 18-05-2016, 05:00 | Просмотров: 57



Создали в: США, Канада
Категория жанра: Боевик, триллер, приключения, вестерн
Главный режиссер: Лоуренс Рёк
Актеры: Скотт Иствуд, Дэнни Гловер, Диего Диабло Дель Мар, Адам Бич ...

Описание фильма
Бывший солдат гражданской войны с посттравматическим синдромом пытается спасти свою жену, которую похитили. Он идет по следу похитителей... Травма дает о себе знать и он переживает все ужасы дьявольской войны, которые вернулись, чтобы преследовать его...
Релиз подготовил: K.E.N(NNM-CLUB)
Время просмотра: 01: 23: 11
Качество фильма видео: BDRip-AVC
Перевод текста: Любительский двухголосый (Parovoz Production)
Субтитры: Английские
Вид субтитров: Вшитые отключаемые
Информация о видео: AVC, 1024x426 (2.40: 1), 23.976 fps, 2 676 Kbps (0.256 bit/pixel)
Информация о звуке #1: AC-3, 48.0 KHz, 2 ch, 384 Kbps, CBR (Russian)
Информация о звуке #2: AC-3, 48.0 KHz, 6 ch, 384 Kbps, CBR (English)
MediaInfo:
Формат : Matroska
Версия формата : Version 2
Размер файла : 2, 00 Гбайт
Продолжительность : 1 ч. 23 м.
Общий поток : 3444 Кбит/сек
Дата кодирования : UTC 2016-05-16 13: 16: 52
Программа кодирования : mkvmerge v5.3.0 (;I could have danced;) built on Feb 9 2012 10: 38: 07
Библиотека кодирования : libebml v1.2.3 + libmatroska v1.3.0
Attachment : Yes
Видео
Идентификатор : 1
Формат : AVC
Формат/Информация : Advanced Video Codec
Профиль формата : High@L4.1
Параметр CABAC формата : Да
Параметр ReFrames формата : 10 кадров
Идентификатор кодека : V_MPEG4/ISO/AVC
Продолжительность : 1 ч. 23 м.
Битрейт : 2676 Кбит/сек
Ширина : 1024 пикселя
Высота : 426 пикселей
Соотношение сторон : 2, 40: 1
Режим частоты кадров : Постоянный
Частота кадров : 23, 976 кадра/сек
Цветовое пространство : YUV
Субдискретизация насыщенности : 4: 2: 0
Битовая глубина : 8 бит
Тип развёртки : Прогрессивная
Бит/(Пиксели*Кадры) : 0.256
Размер потока : 1, 52 Гбайт (76%)
Библиотека кодирования : x264 core 146 r2538 121396c
Настройки программы : cabac=1/ref=10/deblock=1: -3: -3/analyse=0x3: 0x133/me=umh/subme=11/psy=1/psy_rd=1.00: 0.10/mixed_ref=1/me_range=32/chroma_me=1/trellis=2/8x8dct=1/cqm=0/deadzone=21, 11/fast_pskip=0/chroma_qp_offset=-3/threads=12/lookahead_threads=2/sliced_threads=0/nr=0/decimate=0/interlaced=0/bluray_compat=0/constrained_intra=0/bframes=8/b_pyramid=2/b_adapt=2/b_bias=0/direct=3/weightb=1/open_gop=0/weightp=2/keyint=240/keyint_min=23/scenecut=40/intra_refresh=0/rc=2pass/mbtree=0/bitrate=2676/ratetol=1.0/qcomp=0.60/qpmin=0/qpmax=69/qpstep=4/cplxblur=20.0/qblur=0.5/ip_ratio=1.40/pb_ratio=1.30/aq=1: 0.70
Язык : English
Default : Да
Forced : Нет
Аудио #1
Идентификатор : 2
Формат : AC-3
Формат/Информация : Audio Coding 3
Расширение режима : CM (complete main)
Параметр Endianness формата : Big
Идентификатор кодека : A_AC3
Продолжительность : 1 ч. 23 м.
Вид битрейта : Постоянный
Битрейт : 384 Кбит/сек
Каналы : 2 канала
Расположение каналов : Front: L R
Частота : 48, 0 КГц
Битовая глубина : 16 бит
Метод сжатия : С потерями
Размер потока : 228 Мбайт (11%)
Язык : Russian
Default : Да
Forced : Нет
Аудио #2
Идентификатор : 3
Формат : AC-3
Формат/Информация : Audio Coding 3
Расширение режима : CM (complete main)
Параметр Endianness формата : Big
Идентификатор кодека : A_AC3
Продолжительность : 1 ч. 23 м.
Вид битрейта : Постоянный
Битрейт : 384 Кбит/сек
Каналы : 6 каналов
Расположение каналов : Front: L C R, Side: L R, LFE
Частота : 48, 0 КГц
Битовая глубина : 16 бит
Метод сжатия : С потерями
Размер потока : 228 Мбайт (11%)
Язык : English
Default : Нет
Forced : Нет
Текст
Идентификатор : 4
Формат : UTF-8
Идентификатор кодека : S_TEXT/UTF8
Идентификатор кодека/Информация : UTF-8 Plain Text
Язык : English
Default : Нет
Forced : Нет
Меню
00: 00: 00.000 : : Chapter 01
00: 05: 50.433 : : Chapter 02
00: 09: 35.616 : : Chapter 03
00: 14: 20.818 : : Chapter 04
00: 18: 49.336 : : Chapter 05
00: 26: 21.621 : : Chapter 06
00: 30: 33.122 : : Chapter 07
00: 34: 08.546 : : Chapter 08
00: 41: 57.640 : : Chapter 09
00: 46: 18.442 : : Chapter 10
00: 51: 39.971 : : Chapter 11
00: 57: 57.265 : : Chapter 12
01: 02: 17.817 : : Chapter 13
01: 06: 12.718 : : Chapter 14
01: 12: 37.186 : : Chapter 15
01: 17: 23.180 : : Chapter 16

Скриншоты:

Онлайн видео Дьявол


Размер скачиваемого торрента: 2.00 GB (2148982895 Bytes)

Дьявол/Diablo (2015) BDRip-AVC | L2
загрузка...
Рейтинг →
 (голосов: 1, оценка 3/5, голосовать можно 1 раз )

Другие торренты по теме:

  • Дьявол / Devil (2010) BDRip-AVC | D торрент скачать бесплатно
  • Семя Дьявола / Devil Seed (2012) DVDRip торрент скачать бесплатно
  • Наследник Дьявола / Devil Survivor 2 The Animation (2013) BDRip 720p | L2 торрент скачать бесплатно
  • Дьявол / Devil (2010) BDRip 720p от MediaClub | D, A скачать через торрент бесплатно
  • Дьявол / Devil (2010) BDRip-AVC от MediaClub | D, A скачать через торрент бесплатно
  • Дьявол / Diablo (2011) WEB-DLRip от MegaPeer | P скачать торрент бесплатно
  • Дьявол / Diablo (2011) WEB-DLRip 720p от MegaPeer | P скачать торрент бесплатно
  • Погоня с дьяволом / Ride with the Devil (1999) DVDRip-AVC от Тorrent-Хzona торрент скачать бесплатно


    • Комментарии (0):

      Информация

      Информация

        Посетители, находящиеся в группе Гости, не могут оставлять комментарии в данной новости.

        ↓ Меню



        ↓ Опрос

        А Вы добавили сайт в закладки?
        Да
        Не


        Top 10 за неделю (Фильмы)