.
Авторизация | Регистрация




Перед рассветом (1989) HDTVRip скачать торрент бесплатно

Опубликовал: Админ | Дата: 19-05-2016, 16:45 | Просмотров: 62



Детально о кино
Русское название: Перед рассветом
Создали в: 1989
Категория жанра: Боевик, военный
Главный режиссер: Ярополк Лапшин

Актеры
Николай Бадьев, Евгений Миронов, Александр Панкратов-Чёрный, Валерий Рыжаков, Раиса Рязанова, Константин Степанков, Вера Альховская, Олег Корчиков, Вячеслав Кириличев, Игорь Головин

Сюжет фильма

Жаркое лето 1941 года. Небольшая станция в прифронтовой полосе. В один из вагонов погружают группу уголовников. Не успевает поезд проехать и несколько километров, как подвергается налету авиации и атаке десанта.
После боя из всего состава в живых остаются только трое: молодой лейтенант НКВД, вор в законе и репрессированный генерал. Они бегут в лес, подальше от разбитого поезда и преследующих их немцев. В такой ситуации заключенные, казалось, могли бы считать себя свободными, но лейтенант думает иначе и намерен доставить их к месту назначения.

Снималось в: СССР
Киностудия: Свердловская киностудия
Время просмотра: 01: 19: 46
Перевод текста: Не требуется
Файл
Качество фильма: HDTVRip
Кодек для видео: XviD
Информация о видео: 720x528 (1, 37: 1), 25 fps, XviD ~2263 kbps avg, 0.238 bit/pixel
Информация о звуке: AC3, 48 kHz, 2 ch, ~192.00 kbps avg
Субтитры: Отсутствуют
Семпл
Скриншоты
Инфо-файл
Общее
Полное имя : D: TorrentsЗавершенныеPered.rassvetom.1989.HDTVRip_POWER.avi
Формат : AVI
Формат/Информация : Audio Video Interleave
Профиль формата : OpenDML
Размер файла : 1, 37 Гбайт
Продолжительность : 1 ч. 19 м.
Общий поток : 2467 Кбит/сек
Программа кодирования : Lavf57.25.100
Видео
Идентификатор : 0
Формат : MPEG-4 Visual
Профиль формата : Advanced Simple@L5
Параметр BVOP формата : 1
Параметр QPel формата : Нет
Параметр GMC формата : Без точки перехода
Параметр матрицы формата : Default (H.263)
Идентификатор кодека : XVID
Идентификатор кодека/Подсказка : XviD
Продолжительность : 1 ч. 19 м.
Битрейт : 2263 Кбит/сек
Ширина : 720 пикселей
Высота : 528 пикселей
Соотношение сторон : 1, 370
Частота кадров : 25, 000 кадров/сек
Цветовое пространство : YUV
Субдискретизация насыщенности : 4: 2: 0
Битовая глубина : 8 бит
Тип развёртки : Прогрессивная
Тип развёртки в оригинале : Чересстрочная
Порядок развёртки в оригинале : Верхнее поле первое
Метод сжатия : С потерями
Бит/(Пиксели*Кадры) : 0.238
Размер потока : 1, 26 Гбайт (92%)
Библиотека кодирования : XviD 67
Аудио
Идентификатор : 1
Формат : AC-3
Формат/Информация : Audio Coding 3
Расширение режима : CM (complete main)
Параметр Endianness формата : Big
Идентификатор кодека : 2000
Продолжительность : 1 ч. 19 м.
Вид битрейта : Постоянный
Битрейт : 192 Кбит/сек
Каналы : 2 канала
Расположение каналов : Front: L R
Частота : 48, 0 КГц
Частота кадров : 31, 250 кадров/сек (1536 spf)
Битовая глубина : 16 бит
Метод сжатия : С потерями
Размер потока : 109 Мбайт (8%)
Выравнивание : Соединение по промежуткам
Продолжительность промежутка : 32 мс. (0, 80 видеокадр)
Время предзагрузки промежутка : 32 мс.

Залил: admiralkz

Онлайн видео Предел возможного (1984) SATRip


Размер скачиваемого торрента: 1.37 GB (1473128454 Bytes)

Перед рассветом (1989) HDTVRip
загрузка...
Рейтинг →
 (голосов: 1, оценка 4/5, голосовать можно 1 раз )

Другие торренты по теме:



    Комментарии (0):

    Информация

    Информация

      Посетители, находящиеся в группе Гости, не могут оставлять комментарии в данной новости.

      ↓ Меню



      ↓ Опрос

      А Вы добавили сайт в закладки?
      Да
      Не


      Top 10 за неделю (Фильмы)