.
Авторизация | Регистрация
Хочешь лучшие торренты? Добавь свой email!
Добавить
» » Ценный груз / Precious Cargo (2016) WEB-DLRip-AVC | L торрент скачать бесплатно




    Ценный груз / Precious Cargo (2016) WEB-DLRip-AVC | L торрент скачать бесплатно

    Опубликовал: Админ | Дата: 20-05-2016, 05:00 | Просмотров: 214



    Детально о кино
    Русское название: Ценный груз
    Русское название в мировом прокате: Precious Cargo
    Создали в: 2016
    Снималось в: Канада
    Категория жанра: боевик, триллер, драма, криминал
    Перевод текста: Любительский (многоголосный) Parovoz Production
    Время просмотра: 01: 29: 56
    Главный режиссер: Макс Адамс

    Актеры
    Марк-Пол Госселаар(Jack) , Брюс Уиллис(Eddie) , Клэр Форлани(Karen) , Джон Бразертон(Nicholas) , Дженна Б. Келли(Logan) , Николас М. Лоб(Andrew Herzberg) , Лидия Халл(Jenna) , Дэниэл Бернхард(Simon) , Эшли Кирк(Zoe) , Тайлер Джон Олсон(Lucas) , Кристофер Роб Бауэн(Glenn) , Сэмми Барбер(Apsara)


    Описание фильма

    Босс преступной группировки пробует убежать от ответственности за ограбление, которое совершил другой вор.
    Рейтинг:

    MPAA: R- Лицам до 17 лет обязательно присутствие взрослого
    Качество фильма: WEB-DLRip-AVC
    Тип видео: MKV
    Информация о видео: AVC, 1024x426 (2.40: 1), 2127 kbps, 23, 976 fps, 0, 203 bpp
    Информация о звуке: AC3/2.0/48 kHz/192 kbps/16 bit
    Семпл

    Релиз подготовил: by White Smoke

    ОтчетМедиаИнфо

    General
    Unique ID : 250253466237966535733727830486204083915 (0xBC45107E942F96D7812872DDEA98EECB)
    Название : C: GamesPrecious.Cargo.2016.WEB-DLRip-AVC.by.White Smoke.R.G.Resident.mkv
    Формат : Matroska
    Формат version : Version 2
    Размер файла : 1.46 GiB
    Длительность : 1h 29mn
    Общий Битрейт : 2 320 Kbps
    Encoded date : UTC 2016-05-19 12: 53: 44
    Создано приложением : mkvmerge v7.8.0 (;River Man;) 32bit built on Apr 3 2015 12: 11: 22
    Writing library : libebml v1.3.1 + libmatroska v1.4.2
    Video
    ID : 1
    Формат : AVC
    Формат/Info : Advanced Video Кодек
    Формат profile : High@L4.1
    Формат настройки, CABAC : Yes
    Формат настройки, ReFrames : 12 frames
    Кодек ID : V_MPEG4/ISO/AVC
    Длительность : 1h 29mn
    Битрейт : 2 127 Kbps
    Width : 1 024 пикселей
    Высота : 426 пикселей
    Соотношение кадра : 2.40: 1
    Частота кадров : 23.976 fps
    Цветопередача : YUV
    Chroma subsampling : 4: 2: 0
    Разрядность : 8 bits
    Тип сканирования : Progressive
    Bits/(Pixel*Frame) : 0.203
    Размер потока : 1.31 GiB (90%)
    Writing library : x264 core 146 r2538 121396c
    Encoding настройки : cabac=1/ref=12/deblock=1: -2: -2/analyse=0x3: 0x113/me=umh/subme=9/psy=1/psy_rd=1.00: 0.00/mixed_ref=1/me_range=32/chroma_me=1/trellis=2/8x8dct=1/cqm=0/deadzone=21, 11/fast_pskip=0/chroma_qp_offset=-2/threads=6/lookahead_threads=1/sliced_threads=0/nr=0/decimate=0/interlaced=0/bluray_compat=0/constrained_intra=0/bframes=10/b_pyramid=2/b_adapt=2/b_bias=0/direct=3/weightb=1/open_gop=0/weightp=2/keyint=250/keyint_min=23/scenecut=40/intra_refresh=0/rc_lookahead=60/rc=2pass/mbtree=0/bitrate=2127/ratetol=1.0/qcomp=0.60/qpmin=0/qpmax=69/qpstep=4/cplxblur=20.0/qblur=0.5/vbv_maxrate=14000/vbv_bufsize=14000/nal_hrd=none/filler=0/ip_ratio=1.40/pb_ratio=1.30/aq=1: 0.80
    Default : Yes
    Forced : No
    Audio
    ID : 2
    Формат : AC-3
    Формат/Info : Audio Coding 3
    Расширение режима : CM (complete main)
    Кодек ID : A_AC3
    Длительность : 1h 29mn
    Битрейт mode : Constant
    Битрейт : 192 Kbps
    Channel(s) : 2 канала
    Channel positions : Front: L R
    Частота : 48.0 KHz
    Разрядность : 16 bits
    Режим сжатия : Lossy
    Размер потока : 124 MiB (8%)
    Default : Yes
    Forced : No

    Скриншоты

    Залил: R.G. Resident

    Онлайн видео Ценный груз


    Размер скачиваемого торрента: 1.46 GB (1565205318 Bytes)

    Ценный груз/Precious Cargo (2016) WEB-DLRip-AVC | L
    загрузка...
    Рейтинг →
     (голосов: 1, оценка 5/5, голосовать можно 1 раз )

    Другие торренты по теме:

  • Ценный груз / Cargo (2013) HD 720p
  • Ценный груз / Precious Cargo (2016) WEB-DLRip | L
  • Ценный груз / Precious Cargo (2016) WEB-DL 720p | L
  • Ценный груз / Precious Cargo / 2016 / ЛМ / WEB-DLRip
  • Ценный груз / Precious Cargo (2016) BDRemux 1080p от ExKinoRay | L
  • Ценный груз / Precious Cargo / 2016 / ЛМ / BDRip (1080p)
  • Ценный груз / Precious Cargo (2016) BDRip от MegaPeer | iTunes


    • Комментарии (0):

      Информация

      Информация

        Посетители, находящиеся в группе Гости, не могут оставлять комментарии в данной новости.

        ↓ Меню



        ↓ Опрос

        А Вы добавили сайт в закладки?
        Да
        Не


        Top 10 за месяц (Фильмы)