.
Авторизация | Регистрация
Хочешь лучшие торренты? Добавь свой email!
Добавить
» » Плохие парни всегда умирают / Bad Guys Always Die (2015) WEBRip-AVC от Batafurai Team | L2 торрент скачать бесплатно




    Плохие парни всегда умирают / Bad Guys Always Die (2015) WEBRip-AVC от Batafurai Team | L2 торрент скачать бесплатно

    Опубликовал: Админ | Дата: 21-05-2016, 05:00 | Просмотров: 80



    Плохие парни всегда умирают/Bad Guys Always Die
    Снималось в: Китай, Юж. Корея
    Категория жанра: чёрная комедия, детектив, экшен, триллер, ромком
    Создали в: 2015
    Время просмотра: 01: 43: 47
    Перевод текста: Любительский (двухголосый закадровый)
    Субтитры подготовлены: русские
    Субтитры подготовлены: китайский/английский хардсаб
    Оригинальная аудиодорожка: Корейско-Китайская
    Главный режиссер: Хао Сунь/Hao Sun

    Актеры
    Сон Йе Чжин/Son Ye-jin/??? (Юж.Корея) - Ли Чжи Ён/Lee Ji-yeon
    Чэнь Бо Линь/Bolin Chen/??? (Тайвань) - Цянцзы, учитель китайского /Qiangzi
    Пак Чхоль Мин/Park Cheol-min/??? (Юж.Корея) - священник
    В остальных ролях: Цяо Чжэнь Юй/Qiao Zhenyu/??? (Китай) - Саньэр, друг Цянцзы/San;er
    Дин Вэнь Бо/Wenbo Ding (???) (Китай) - Датоу, друг Цянцзы/Datou
    Ян Сюй Вэнь/Xuwen Yang (???) (Китай) - Па-па, младший брат Цянцзы /Pa-pa
    Син Хён Чжун/Shin Hyeon-joon/??? (Юж.Корея) - киллер
    Чан Гван/Jang Gwang/?? (Юж.Корея) - старик-полицейский
    Ви Ха Чжун/Wi Ha-joon (???) - Ча Мён Хо, киллер-новичок/Cha Myeong-ho (???)
    Ким Юн Хи/Kim Yoon-hee (???) - Ким Сун Хи/Soon-hee (??)
    Описание: Чёрная комедия о целой цепочке неожиданных событий, которые происходят с Цянцзы (Чэнь Бо Линь), молодым учителем китайского. Живёт он в Пусане, залечивая душевные раны работой в школе. Однажды Цянцзы, его младший брат Па-па (Ян Сюй Вэнь) и двое его школьных друзей Саньэр (Цяо Чжэнь Юй) и Датоу (Дин Вэнь Бо) договариваются провести отпуск на острове Чеджу. Знаете, хорошая такая мужская компания, красивые виды из окна арендованной машины, а в перспективе ночные клубы со спиртным и горячими корейскими девушками! Всё началось, как договаривались: шоссе лентой за горизонт, уточнение планов в машине, школьные воспоминания, пересыпанные солёными мужскими шуточками.
    Как-то слишком всё гладко для экшена! Ан нет, всё по закону жанра! На шоссе им встречается машина, попавшая в ДТП, а внутри девушка без сознания (Сон Йе Чжин). Разве настоящие гусары могут пройти мимо прекрасной незнакомки без чувств? Вот и наши друзья загарцевали вокруг, помогая красотке, и самолично взявшись доставить её в больницу. Тут-то и оказалось, что планам благородной четвёрки наступает неотвратимый каюк, хана и трендец полностью. Как будто кто-то свинью подложил! Чёрную такую, плюшевую, как мягкая игрушка.
    Релиз группы:
    Доп. информация:
    Перевод осуществляла командафансаб-группы Альянс
    Перевод текста, тайминг, перевод песен: Olga Dal
    Редакция, тайпсеттинг: Ujoona
    Консультации по корейскому и китайскому языкам: Aine, Boo, Sorsik
    Озвучивание : Ворони Элейн
    Смотреть обязательно с форсированными субтитрами
    Прежде чем качать видео и комментировать, скачайте сэмпл и послушайте!

    Качество фильма видео: WEBRip-AVC - Сэмпл
    Исходник: Bad Guys Always Die 2015 4K 2160p WEB-DL x264 AAC-SeeHD
    Тип видео видео: mkv
    Информация о видео: 720x304 (2, 35: 1), 25, 000 fps, x264 ~1638 kbps avg, 0.299 bit/pixel
    Информация о звуке: 48 kHz, AC3 Dolby Digital, 2/0 (L, R) ch, ~192 kbps(Русский)
    Информация о звуке: 48 kHz, AC3 Dolby Digital, 2/0 (L, R) ch, ~192 kbps(Корейско-Китайский)
    Скриншоты



    отчет MediaInfo

    Формат : Matroska
    Версия формата : Version 4/Version 2
    Размер файла : 1, 47 Гбайт
    Продолжительность : 1 ч. 43 м.
    Общий поток : 2024 Кбит/сек
    Дата кодирования : UTC 2016-05-20 16: 59: 56
    Программа кодирования : mkvmerge v8.2.0 (;World of Adventure;) 32bit
    Библиотека кодирования : libebml v1.3.1 + libmatroska v1.4.2
    Attachments : FUTURA.TTF
    Видео
    Идентификатор : 1
    Формат : AVC
    Формат/Информация : Advanced Video Codec
    Профиль формата : High@L4.1
    Параметр CABAC формата : Да
    Параметр ReFrames формата : 10 кадров
    Идентификатор кодека : V_MPEG4/ISO/AVC
    Продолжительность : 1 ч. 43 м.
    Битрейт : 1638 Кбит/сек
    Ширина : 720 пикселей
    Высота : 304 пикселя
    Соотношение сторон : 2, 35: 1
    Режим частоты кадров : Постоянный
    Частота кадров : 25, 000 кадров/сек
    Цветовое пространство : YUV
    Субдискретизация насыщенности : 4: 2: 0
    Битовая глубина : 8 бит
    Тип развёртки : Прогрессивная
    Бит/(Пиксели*Кадры) : 0.299
    Размер потока : 1, 19 Гбайт (81%)
    Библиотека кодирования : x264 core 148 r2638 7599210
    Настройки программы : cabac=1/ref=10/deblock=1: -2: -1/analyse=0x3: 0x133/me=umh/subme=10/psy=1/psy_rd=1.00: 0.00/mixed_ref=1/me_range=24/chroma_me=1/trellis=2/8x8dct=1/cqm=0/deadzone=21, 11/fast_pskip=0/chroma_qp_offset=-2/threads=6/lookahead_threads=1/sliced_threads=0/nr=0/decimate=0/interlaced=0/bluray_compat=0/constrained_intra=0/bframes=10/b_pyramid=2/b_adapt=2/b_bias=0/direct=3/weightb=1/open_gop=1/weightp=2/keyint=250/keyint_min=25/scenecut=40/intra_refresh=0/rc_lookahead=60/rc=2pass/mbtree=0/bitrate=1638/ratetol=1.0/qcomp=0.70/qpmin=10/qpmax=51/qpstep=4/cplxblur=20.0/qblur=0.5/vbv_maxrate=62500/vbv_bufsize=78125/nal_hrd=none/filler=0/ip_ratio=1.40/pb_ratio=1.30/aq=1: 1.00
    Язык : English
    Default : Да
    Forced : Нет
    Цветовой диапазон : Limited
    Коэффициенты матрицы : BT.709
    Аудио #1
    Идентификатор : 2
    Формат : AC-3
    Формат/Информация : Audio Coding 3
    Расширение режима : CM (complete main)
    Параметр Endianness формата : Big
    Идентификатор кодека : A_AC3
    Продолжительность : 1 ч. 43 м.
    Вид битрейта : Постоянный
    Битрейт : 192 Кбит/сек
    Каналы : 2 канала
    Расположение каналов : Front: L R
    Частота : 48, 0 КГц
    Частота кадров : 31, 250 кадров/сек (1536 spf)
    Метод сжатия : С потерями
    Размер потока : 143 Мбайт (9%)
    Заголовок : Ворон и Элейн
    Язык : Russian
    Default : Да
    Forced : Нет
    Аудио #2
    Идентификатор : 3
    Формат : AC-3
    Формат/Информация : Audio Coding 3
    Расширение режима : CM (complete main)
    Параметр Endianness формата : Big
    Идентификатор кодека : A_AC3
    Продолжительность : 1 ч. 43 м.
    Вид битрейта : Постоянный
    Битрейт : 192 Кбит/сек
    Каналы : 2 канала
    Расположение каналов : Front: L R
    Частота : 48, 0 КГц
    Частота кадров : 31, 250 кадров/сек (1536 spf)
    Метод сжатия : С потерями
    Размер потока : 143 Мбайт (9%)
    Заголовок : Original
    Язык : Chinese
    Default : Нет
    Forced : Нет
    Текст #1
    Идентификатор : 4
    Формат : ASS
    Идентификатор кодека : S_TEXT/ASS
    Идентификатор кодека/Информация : Advanced Sub Station Alpha
    Продолжительность : 1 ч. 39 м.
    Битрейт : 15 бит/сек
    Count of elements : 76
    Метод сжатия : Без потерь
    Размер потока : 11, 0 Кбайт (0%)
    Заголовок : форсированный(надписи)
    Язык : Russian
    Default : Да
    Forced : Да
    Текст #2
    Идентификатор : 5
    Формат : ASS
    Идентификатор кодека : S_TEXT/ASS
    Идентификатор кодека/Информация : Advanced Sub Station Alpha
    Продолжительность : 1 ч. 39 м.
    Битрейт : 126 бит/сек
    Count of elements : 1011
    Метод сжатия : Без потерь
    Размер потока : 91, 8 Кбайт (0%)
    Заголовок : Перевод - фансаб-группы Альянс
    Язык : Russian
    Default : Нет
    Forced : Нет

    Пример Субтитров

    Dialogue: 0, 0: 02: 08.81, 0: 02: 10.90, Default, , 0, 0, 0, , {blur6}Доброе утро!
    Dialogue: 0, 0: 02: 11.35, 0: 02: 12.60, Default, , 0, 0, 0, , {blur6}{i1}Доброе!
    Dialogue: 0, 0: 02: 59.60, 0: 03: 00.79, Default, , 0, 0, 0, , {blur6}Пустите!
    Dialogue: 0, 0: 03: 06.35, 0: 03: 07.92, Default, , 0, 0, 0, , {blur6}Вы кое-что забыли.
    Dialogue: 0, 0: 03: 10.47, 0: 03: 11.85, Default 2, , 0, 0, 0, , {blur6}Рамён Nна столе оставил.
    Dialogue: 0, 0: 03: 11.86, 0: 03: 13.70, Default 2, , 0, 0, 0, , {blur6}У меняN скоро уроки.
    Dialogue: 0, 0: 03: 13.72, 0: 03: 15.02, Default 2, , 0, 0, 0, , {blur6}– Уважаемый.N– Да?
    Dialogue: 0, 0: 03: 22.64, 0: 03: 23.99, Default, , 0, 0, 0, , {blur6}Это недоразумение.
    Dialogue: 0, 0: 03: 26.22, 0: 03: 28.39, Default 2, , 0, 0, 0, , {blur6}– 50 тысяч вон.N– Что?!
    Dialogue: 0, 0: 03: 28.47, 0: 03: 30.22, Default 2, , 0, 0, 0, , {blur6}Думаете, Nя такое надену?
    Dialogue: 0, 0: 03: 30.23, 0: 03: 31.61, Default 2, , 0, 0, 0, , {blur6}Лифчик Nвполне подошёл бы.
    Dialogue: 0, 0: 03: 33.88, 0: 03: 36.57, Default, , 0, 0, 0, , {blur6}Вот некогда мне, на уроки пора.
    Dialogue: 0, 0: 03: 36.58, 0: 03: 39.08, Default 2, , 0, 0, 0, , {blur6}Похоже, хана Nкорейскому образованию?
    Dialogue: 0, 0: 03: 39.09, 0: 03: 41.15, Default 2, , 0, 0, 0, , {blur6}Раз любой Nподонок в учителя лезет.
    Dialogue: 0, 0: 03: 41.18, 0: 03: 43.32, Default 2, , 0, 0, 0, , {blur6}Ой-ой, Nизвращенец чёртов...
    Dialogue: 0, 0: 03: 50.60, 0: 03: 52.13, Default 2, , 0, 0, 0, , {blur6}{i1}ЧёртовN извращенец!
    Dialogue: 0, 0: 03: 54.97, 0: 03: 57.42, Default 2, , 0, 0, 0, , {blur6}– Господин Цянцзы!N– Я сейчас занят!
    Dialogue: 0, 0: 04: 00.77, 0: 04: 03.90, Default, , 0, 0, 0, , {blur6}{blur6}Это в который раз уже?
    Dialogue: 0, 0: 04: 03.97, 0: 04: 06.69, Default 2, , 0, 0, 0, , {blur6}Но раньше вы хотя бы Nдрались с другими учителями.
    Dialogue: 0, 0: 04: 06.72, 0: 04: 08.79, Default, , 0, 0, 0, , {blur6}А теперь с людьми на улице?
    Dialogue: 0, 0: 04: 09.33, 0: 04: 12.22, Default 2, , 0, 0, 0, , {blur6}Вам нужна Nэта работа или нет?
    Dialogue: 0, 0: 04: 12.39, 0: 04: 16.09, Default 2, , 0, 0, 0, , {blur6}Столько родителей нашихN учеников видели эту драку!
    Dialogue: 0, 0: 04: 16.43, 0: 04: 20.52, Default 2, , 0, 0, 0, , {blur6}А если они начнут задавать вопросы Nо качестве обучения у нас?
    Dialogue: 0, 0: 04: 20.56, 0: 04: 22.09, Default, , 0, 0, 0, , {blur6}{i1}Что мне им сказать?
    Dialogue: 0, 0: 04: 22.19, 0: 04: 25.26, Default 2, , 0, 0, 0, , {blur6}{i1}Как? Вы завтра в отпуске, N а всё не прекратите.
    Dialogue: 0, 0: 04: 25.47, 0: 04: 27.53, Default, , 0, 0, 0, , {blur6}Ну что это такое?
    Dialogue: 0, 0: 04: 28.08, 0: 04: 30.12, Default 2, , 0, 0, 0, , {blur6}Вот в отпуске Nи обдумайте своё поведение.


    Онлайн видео Плохие парни всегда умирают


    Размер скачиваемого торрента: 1.47 GB (1575662273 Bytes)

    Плохие парни всегда умирают/Bad Guys Always Die (2015) WEBRip-AVC от Batafurai Team | L2
    загрузка...
    Рейтинг →
     (голосов: 1, оценка 3/5, голосовать можно 1 раз )

    Другие торренты по теме:



      Комментарии (0):

      Информация

      Информация

        Посетители, находящиеся в группе Гости, не могут оставлять комментарии в данной новости.

        ↓ Меню



        ↓ Опрос

        А Вы добавили сайт в закладки?
        Да
        Не


        Top 10 за месяц (Фильмы)