.
Авторизация | Регистрация
Хочешь лучшие торренты? Добавь свой email!
Добавить




Овод (1955) SATRip от New-Team торрент скачать бесплатно

Опубликовал: Админ | Дата: 22-05-2016, 14:02 | Просмотров: 88



Снималось в: СССР
Создали в: Ленфильм
Категория жанра: боевик, драма, история
Создали в: 1955
Время просмотра: 01: 36: 03
Перевод текста: Не требуется
Субтитры подготовлены: нет
Оригинальная аудиодорожка: русский
Главный режиссер: Александр Файнциммер

Актеры

Олег Стриженов, Марианна Стриженова, Николай Симонов, Владимир Этуш, Семён Свашенко, Павел Усовниченко, Вадим Медведев, Владимир Честноков, Рубен Симонов, Антоний Ходурский, Анна Лисянская, Григорий Шпигель, Елена Юнгер, Борис Дмоховский, Яков Малютин...
Полный список актёров
Описание:
Фильм поставлен по мотивам романа Этель Лилиан Войнич и рассказывает о борьбе итальянских патриотов против австрийских оккупантов за свою независимость.
Режиссер А. Файнциммер воспроизводил события популярного романа, сгущая его романтические краски, акцентируя роковые случайности, мелодраматические эффекты.



Источник: DVB
Качество фильма видео: SATRip
Тип видео видео: AVI
Информация о видео: 576x432 (4: 3), 25 fps, XviD ~ 944 kbps avg, 0.152 bit/pixel
Информация о звуке: 48 kHz, MP3 2.0, 128 kbps
Раздача от:
MediaInfo

Общее
Полное имя : Ovod.1955.SATRip-745_New-team_by_AVP_Studio.avi
Формат : AVI
Формат/Информация : Audio Video Interleave
Размер файла : 743 Мбайт
Продолжительность : 1 ч. 36 м.
Общий поток : 1082 Кбит/сек
Программа кодирования : VirtualDubMod 1.5.10.3 | www.virtualdub-fr.org || (build 2550/release)
Библиотека кодирования : VirtualDubMod build 2550/release
Видео
Идентификатор : 0
Формат : MPEG-4 Visual
Профиль формата : Advanced Simple@L5
Параметр BVOP формата : 1
Параметр QPel формата : Нет
Параметр GMC формата : Без точки перехода
Параметр матрицы формата : Выборочная
Идентификатор кодека : XVID
Идентификатор кодека/Подсказка : XviD
Продолжительность : 1 ч. 36 м.
Битрейт : 944 Кбит/сек
Ширина : 576 пикселей
Высота : 432 пикселя
Соотношение сторон : 4: 3
Частота кадров : 25, 000 кадров/сек
Цветовое пространство : YUV
Субдискретизация насыщенности : 4: 2: 0
Битовая глубина : 8 бит
Тип развёртки : Прогрессивная
Метод сжатия : С потерями
Бит/(Пиксели*Кадры) : 0.152
Размер потока : 649 Мбайт (87%)
Библиотека кодирования : XviD 1.2.1 (UTC 2008-12-04)
Аудио
Идентификатор : 1
Формат : MPEG Audio
Версия формата : Version 1
Профиль формата : Layer 3
Идентификатор кодека : 55
Идентификатор кодека/Подсказка : MP3
Продолжительность : 1 ч. 36 м.
Вид битрейта : Постоянный
Битрейт : 128 Кбит/сек
Каналы : 2 канала
Частота : 48, 0 КГц
Метод сжатия : С потерями
Размер потока : 87, 9 Мбайт (12%)
Выравнивание : Соединение по промежуткам
Продолжительность промежутка : 40 мс. (1, 00 видеокадр)
Время предзагрузки промежутка : 504 мс.
Библиотека кодирования : LAME3.99r
Залил: AVPStudio

Онлайн видео Овод (1955) SATRip от New


Размер скачиваемого торрента: 743.40 MB (779513856 Bytes)


Овод (1955) SATRip от New-Team
загрузка...
Рейтинг →
 (голосов: 1, оценка 5/5, голосовать можно 1 раз )

Другие торренты по теме:



    Комментарии (0):

    Информация

    Информация

      Посетители, находящиеся в группе Гости, не могут оставлять комментарии в данной новости.

      ↓ Меню



      ↓ Опрос

      А Вы добавили сайт в закладки?
      Да
      Не


      Top 10 за месяц (Фильмы)