.
Авторизация | Регистрация
» » Мой парень – киллер / Mr. Right (2015) BDRemux 1080p от ExKinoRay | L скачать торрент бесплатно




    Мой парень – киллер / Mr. Right (2015) BDRemux 1080p от ExKinoRay | L скачать торрент бесплатно

    Опубликовал: Админ | Дата: 26-05-2016, 05:00 | Просмотров: 82



    Детально о кино
    Русское название: Мой парень – киллер
    Русское название в мировом прокате: Mr. Right
    Создали в: 2015
    Категория жанра: Боевик, мелодрама, комедия
    Главный режиссер: Пако Кабесас

    Актеры
    Анна Кендрик, Тим Рот, Сэм Рокуэлл, Энсон Маунт, Джеймс Рэнсон, Ризза, Майкл Эклунд, Луис Да Силва мл., Елена Санчес, Сэм Медина, Венди МакКольм, Келли Коннолли, Мэтт Кук, Пако Кабесас

    Сюжет фильма

    Кендрик сыграет женщину, которой очень не везло с мужчинами. И, конечно, она несказанно радуется, когда ей попадается парень, подходящий по всем параметрам. Но тут начинаются проблемы. Ее идеал оказывается бывшим киллером, и его прошлое однажды вновь заявляет о себе, причем не самым приятным образом. И едва зародившиеся отношения начинают подвергаться серьезным испытаниям…

    Снималось в: США
    Киностудия: 3311 Productions, Amasia Entertainment, Circle of Confusion
    Время просмотра: 01: 35: 24
    Перевод текста: Любительский многоголосый (закадровый) | RecentFilms
    Файл
    Кодек для видео: MPEG-4
    Качество фильма: BDRemux 1080p
    Информация о видео: 1920x1080, 31.1 Mbit/s, 23.976 fps
    Информация о звуке:
    Информация о звуке #01: 48 kHz, AC3, 5.1, 640 Kbps | Любительский многоголосый (закадровый), RecentFilms | AC3
    Информация о звуке #02: 48 kHz, DTS-HD MA, 5.1, 3840 kbps | Оригинал | DTS-HD MA
    Субтитры: Английские
    Релиз подготовил: Автор релиза:

    MI
    General
    Unique ID : 174871656998645135861373045325831886141 (0x838F0E5A32FE3B86A91134A2CA08553D)
    Complete name : F: VideoMr.Right.2015.BDREMUX.1080p.ExKinoRay.mkv
    Format : Matroska
    Format version : Version 4/Version 2
    File size : 23.8 GiB
    Duration : 1h 35mn
    Overall bit rate mode : Variable
    Overall bit rate : 35.6 Mbps
    Movie name : Mr.Right.2015.BDREMUX.1080p.ExKinoRay
    Encoded date : UTC 2016-05-25 12: 34: 24
    Writing application : mkvmerge v8.3.0 (;Over the Horizon;) 64bit
    Writing library : libebml v1.3.1 + libmatroska v1.4.2
    Video
    ID : 1
    Format : AVC
    Format/Info : Advanced Video Codec
    Format profile : High@L4.1
    Format settings, CABAC : Yes
    Format settings, ReFrames : 4 frames
    Codec ID : V_MPEG4/ISO/AVC
    Duration : 1h 35mn
    Bit rate mode : Variable
    Bit rate : 31.1 Mbps
    Maximum bit rate : 35.0 Mbps
    Width : 1 920 pixels
    Height : 1 080 pixels
    Display aspect ratio : 16: 9
    Frame rate mode : Constant
    Frame rate : 23.976 (24000/1001) fps
    Color space : YUV
    Chroma subsampling : 4: 2: 0
    Bit depth : 8 bits
    Scan type : Progressive
    Bits/(Pixel*Frame) : 0.627
    Stream size : 20.8 GiB (87%)
    Title : Mr.Right.2015.BDREMUX.1080p.ExKinoRay.***селезень***
    Language : English
    Default : No
    Forced : No
    Audio #1
    ID : 2
    Format : AC-3
    Format/Info : Audio Coding 3
    Mode extension : CM (complete main)
    Format settings, Endianness : Big
    Codec ID : A_AC3
    Duration : 1h 35mn
    Bit rate mode : Constant
    Bit rate : 640 Kbps
    Channel(s) : 6 channels
    Channel positions : Front: L C R, Side: L R, LFE
    Sampling rate : 48.0 KHz
    Frame rate : 31.250 fps (1536 spf)
    Compression mode : Lossy
    Stream size : 437 MiB (2%)
    Title : MVO RecentFilms
    Language : Russian
    Default : Yes
    Forced : No
    Audio #2
    ID : 3
    Format : DTS
    Format/Info : Digital Theater Systems
    Format profile : MA/Core
    Mode : 16
    Format settings, Endianness : Big
    Codec ID : A_DTS
    Duration : 1h 35mn
    Bit rate mode : Variable/Constant
    Bit rate : 3 840 Kbps/1 509 Kbps
    Channel(s) : 6 channels
    Channel positions : Front: L C R, Side: L R, LFE
    Sampling rate : 48.0 KHz
    Frame rate : 93.750 fps (512 spf)
    Bit depth : 24 bits
    Compression mode : Lossless/Lossy
    Stream size : 2.57 GiB (11%)
    Title : Original
    Language : English
    Default : No
    Forced : No
    Text #1
    ID : 4
    Format : UTF-8
    Codec ID : S_TEXT/UTF8
    Codec ID/Info : UTF-8 Plain Text
    Duration : 1h 32mn
    Bit rate : 81 bps
    Count of elements : 1729
    Stream size : 55.5 KiB (0%)
    Title : English regular
    Language : English
    Default : No
    Forced : No
    Text #2
    ID : 5
    Format : UTF-8
    Codec ID : S_TEXT/UTF8
    Codec ID/Info : UTF-8 Plain Text
    Duration : 1h 32mn
    Bit rate : 87 bps
    Count of elements : 1869
    Stream size : 59.6 KiB (0%)
    Title : English sdh
    Language : English
    Default : No
    Forced : No
    Menu
    00: 00: 00.000 : en: Chapter 01
    00: 04: 37.860 : en: Chapter 02
    00: 08: 25.713 : en: Chapter 03
    00: 11: 40.741 : en: Chapter 04
    00: 15: 48.906 : en: Chapter 05
    00: 18: 59.638 : en: Chapter 06
    00: 23: 35.247 : en: Chapter 07
    00: 27: 29.481 : en: Chapter 08
    00: 33: 51.446 : en: Chapter 09
    00: 39: 11.766 : en: Chapter 10
    00: 43: 59.970 : en: Chapter 11
    00: 46: 09.349 : en: Chapter 12
    00: 51: 56.530 : en: Chapter 13
    00: 56: 39.604 : en: Chapter 14
    00: 59: 27.814 : en: Chapter 15
    01: 04: 24.694 : en: Chapter 16
    01: 10: 16.629 : en: Chapter 17
    01: 16: 40.762 : en: Chapter 18
    01: 22: 23.813 : en: Chapter 19
    01: 28: 02.819 : en: Chapter 20
    Скриншоты


    Онлайн видео Мой парень – киллер


    Размер скачиваемого торрента: 23.78 GB (25529976884 Bytes)

    Мой парень – киллер/Mr. Right (2015) BDRemux 1080p от ExKinoRay | L
    загрузка...
    Рейтинг →
     (голосов: 1, оценка 3/5, голосовать можно 1 раз )

    Другие торренты по теме:

  • OST - Мой парень - псих / Silver Linings Playbook Soundtrack (2012) MP3 торрент скачать бесплатно
  • Мой парень – псих / Silver Linings Playbook (2012) DVDScr | Звук с TS торрент скачать бесплатно
  • Мой парень - псих / Silver Linings Playbook (2012) DVDScr | Звук с TS торрент скачать бесплатно
  • Морской парень / Marine boy / Ma-rin-bo-ee (2009) DVDRip | L1 торрент скачать бесплатно
  • Парень, ты попал / Suckers (2001) DVD5 R5 | P2 торрент скачать бесплатно
  • Заводной парень / Jet Boy (2001) DVDRip от Киномагия | A торрент скачать бесплатно
  • Клевый парень / Bowfinger (1999) HDTVRip 720p от vittrack торрент скачать бесплатно
  • Парень и его пес / A Boy and His Dog (1974) HDTVRip-AVC от Тorrent-Хzona торрент скачать бесплатно


    • Комментарии (0):

      Информация

      Информация

        Посетители, находящиеся в группе Гости, не могут оставлять комментарии в данной новости.

        ↓ Меню



        ↓ Опрос

        А Вы добавили сайт в закладки?
        Да
        Не


        Top 10 за неделю (Фильмы)