.
Авторизация | Регистрация
» » Русалка / Mei ren yu (2016) BDRip 720p от ExKinoRay | L1 скачать торрент бесплатно




    Русалка / Mei ren yu (2016) BDRip 720p от ExKinoRay | L1 скачать торрент бесплатно

    Опубликовал: Админ | Дата: 27-05-2016, 05:00 | Просмотров: 60



    Детально о кино
    Русское название: Русалка
    Русское название в мировом прокате: Mei ren yu (Mermaid)
    Создали в: 2016
    Категория жанра: Фантастика, фэнтези, драма, мелодрама
    Главный режиссер: Стивен Чоу

    Актеры
    Чао Ден, Шоу Луо, Юки Чжан, Пьер Бурдо

    Сюжет фильма

    Русалочка по имени Шан отправляется на миссию по соблазнению и убийству Лина Кхуана - промышленника, который загрязняет океаны, убивая в них жизнь.

    Снималось в: Китай
    Киностудия: Alibaba Pictures Group
    Время просмотра: 01: 33: 46
    Перевод текста: Любительский одноголосый (закадровый) | Вячеслав Замез aka zamez
    Файл
    Кодек для видео: MPEG-4
    Качество фильма: BDRip 720p
    Информация о видео: 1280x674, 8738 Kbit/s, 23.976 fps
    Информация о звуке: 48 kHz, AC3, 2.0, 192 Kbps | Любительский одноголосый (закадровый), Вячеслав Замез aka zamez |
    Релиз подготовил: Автор релиза:

    MI
    General
    Unique ID : 205852422061154129719083490119063695798 (0x9ADDBC002545DC5C80D1B3CE1B87F1B6)
    Complete name : F: VideoMermaid.2016.BDRip.720p.ExKinoRay.mkv
    Format : Matroska
    Format version : Version 4/Version 2
    File size : 5.85 GiB
    Duration : 1h 33mn
    Overall bit rate : 8 916 Kbps
    Movie name : Mermaid.2016.BDRip.720p.ExKinoRay
    Encoded date : UTC 2016-05-26 10: 19: 53
    Writing application : mkvmerge v8.3.0 (;Over the Horizon;) 64bit
    Writing library : libebml v1.3.1 + libmatroska v1.4.2
    Video
    ID : 1
    Format : AVC
    Format/Info : Advanced Video Codec
    Format profile : High@L4.1
    Format settings, CABAC : Yes
    Format settings, ReFrames : 9 frames
    Codec ID : V_MPEG4/ISO/AVC
    Duration : 1h 33mn
    Bit rate : 8 738 Kbps
    Width : 1 280 pixels
    Height : 674 pixels
    Display aspect ratio : 1.899
    Frame rate mode : Constant
    Frame rate : 23.976 (24000/1001) fps
    Color space : YUV
    Chroma subsampling : 4: 2: 0
    Bit depth : 8 bits
    Scan type : Progressive
    Bits/(Pixel*Frame) : 0.422
    Stream size : 5.72 GiB (98%)
    Writing library : x264 core 129 r2245+704+36 8e61944 tMod+MixAQ 8-bit@4: 2: 0 X86_64
    Encoding settings : cabac=1/ref=9/deblock=1: -3: -3/analyse=0x3: 0x133/me=umh/subme=11/psy=1/fade_compensate=0.00/psy_rd=1.05: 0.10/mixed_ref=1/me_range=32/chroma_me=1/trellis=2/8x8dct=1/cqm=0/deadzone=21, 11/fast_pskip=0/chroma_qp_offset=-3/threads=18/lookahead_threads=3/sliced_threads=0/nr=0/decimate=0/interlaced=0/bluray_compat=0/constrained_intra=0/fgo=0/bframes=10/b_pyramid=2/b_adapt=2/b_bias=0/direct=3/weightb=1/open_gop=0/weightp=2/keyint=250/keyint_min=23/scenecut=40/intra_refresh=0/rc_lookahead=80/rc=2pass/mbtree=1/bitrate=8738/ratetol=1.0/qcomp=0.70/qpmin=0/qpmax=69/qpstep=4/cplxblur=20.0/qblur=0.5/ip_ratio=1.40/aq=1/aq-strength=0.85/aq-sensitivity=10.00/aq-ifactor=1.00/aq-pfactor=1.00/aq-bfactor=1.00/aq2=0
    Language : Chinese
    Default : Yes
    Forced : No
    Color range : Limited
    Matrix coefficients : BT.709
    Audio
    ID : 2
    Format : AC-3
    Format/Info : Audio Coding 3
    Mode extension : CM (complete main)
    Format settings, Endianness : Big
    Codec ID : A_AC3
    Duration : 1h 33mn
    Bit rate mode : Constant
    Bit rate : 192 Kbps
    Channel(s) : 2 channels
    Channel positions : Front: L R
    Sampling rate : 48.0 KHz
    Frame rate : 31.250 fps (1536 spf)
    Compression mode : Lossy
    Stream size : 129 MiB (2%)
    Title : VO
    Language : Russian
    Default : Yes
    Forced : No
    Menu
    00: 00: 00.000 : en: 00: 00: 00.000
    00: 06: 15.625 : en: 00: 06: 15.625
    00: 15: 11.076 : en: 00: 15: 11.076
    00: 23: 16.186 : en: 00: 23: 16.186
    00: 30: 53.977 : en: 00: 30: 53.977
    00: 40: 44.692 : en: 00: 40: 44.692
    00: 47: 27.511 : en: 00: 47: 27.511
    00: 55: 52.057 : en: 00: 55: 52.057
    00: 59: 46.291 : en: 00: 59: 46.291
    01: 09: 14.984 : en: 01: 09: 14.984
    01: 17: 51.958 : en: 01: 17: 51.958
    01: 25: 13.108 : en: 01: 25: 13.108
    Скриншоты


    Онлайн видео Русалка


    Размер скачиваемого торрента: 5.85 GB (6276592720 Bytes)

    Русалка/Mei ren yu (2016) BDRip 720p от ExKinoRay | L1
    загрузка...
    Рейтинг →
     (голосов: 1, оценка 4/5, голосовать можно 1 раз )

    Другие торренты по теме:



      Комментарии (0):

      Информация

      Информация

        Посетители, находящиеся в группе Гости, не могут оставлять комментарии в данной новости.

        ↓ Меню



        ↓ Опрос

        А Вы добавили сайт в закладки?
        Да
        Не


        Top 10 за неделю (Фильмы)