.
Авторизация | Регистрация
Хочешь лучшие торренты? Добавь свой email!
Добавить
» » Мафия: Игра на выживание (2015) BDRip 1080p от ExKinoRay | Лицензия торрент скачать бесплатно




    Мафия: Игра на выживание (2015) BDRip 1080p от ExKinoRay | Лицензия торрент скачать бесплатно

    Опубликовал: Админ | Дата: 27-05-2016, 05:00 | Просмотров: 61



    Детально о кино
    Русское название: Мафия: Игра на выживание
    Создали в: 2015
    Категория жанра: Фантастика, боевик
    Главный режиссер: Сарик Андреасян

    Актеры
    Виктор Вержбицкий, Вениамин Смехов, Юрий Чурсин, Вячеслав Разбегаев, Ольга Тумайкина, Андрей Чадов, Вадим Цаллати, Виолетта Гетманская, Наталья Рудова, Евгений Коряковский

    Сюжет фильма

    Москва. Далекое будущее. Карточная игра МАФИЯ стала самым популярным в мире телешоу. Одиннадцать человек соберутся за столом, чтобы выяснить — кто из них Мирный Житель, а кто безжалостная МАФИЯ. На глазах всего мира готовится коктейль из эмоций и чувств: хитрости, страха, лжи, ненависти, презрения, боли, гордости, страсти, любви и смерти. Ведь выигравший в схватке получит огромный денежный приз, а проигравший просто умрет...

    Снималось в: Россия
    Киностудия: Enjoy Movies, Renovatio ent.
    Время просмотра: 01: 31: 06
    Файл
    Кодек для видео: MPEG-4
    Качество фильма: BDRip 1080p
    Информация о видео: 1920x804, 15250 Кbit/s, 23.976 fps
    Информация о звуке: 48 kHz, DTS, 5.1, 1536 Kbps | Лицензия |
    Релиз подготовил: Автор релиза:

    MI
    General
    Unique ID : 221438568448127102156187145777377233990 (0xA6978458E8CB52C094E57A8B6178CC46)
    Complete name : F: VideoSurvival.Game.2015.BDRip.1080p.ExKinoRay.mkv
    Format : Matroska
    Format version : Version 4/Version 2
    File size : 10.7 GiB
    Duration : 1h 31mn
    Overall bit rate : 16.8 Mbps
    Movie name : Survival.Game.2015.BDRip.1080p.ExKinoRay
    Encoded date : UTC 2016-05-26 07: 14: 44
    Writing application : mkvmerge v8.3.0 (;Over the Horizon;) 64bit
    Writing library : libebml v1.3.1 + libmatroska v1.4.2
    Video
    ID : 1
    Format : AVC
    Format/Info : Advanced Video Codec
    Format profile : High@L4.1
    Format settings, CABAC : Yes
    Format settings, ReFrames : 5 frames
    Codec ID : V_MPEG4/ISO/AVC
    Duration : 1h 31mn
    Bit rate : 15.3 Mbps
    Width : 1 920 pixels
    Height : 804 pixels
    Display aspect ratio : 2.40: 1
    Frame rate mode : Constant
    Frame rate : 23.976 (24000/1001) fps
    Color space : YUV
    Chroma subsampling : 4: 2: 0
    Bit depth : 8 bits
    Scan type : Progressive
    Bits/(Pixel*Frame) : 0.412
    Stream size : 9.68 GiB (91%)
    Writing library : x264 core 146 r2538 121396c
    Encoding settings : cabac=1/ref=5/deblock=1: -3: -3/analyse=0x3: 0x133/me=umh/subme=11/psy=1/psy_rd=1.10: 0.00/mixed_ref=1/me_range=48/chroma_me=1/trellis=2/8x8dct=1/cqm=0/deadzone=21, 11/fast_pskip=0/chroma_qp_offset=-2/threads=6/lookahead_threads=2/sliced_threads=0/nr=0/decimate=0/interlaced=0/bluray_compat=0/constrained_intra=0/bframes=8/b_pyramid=2/b_adapt=2/b_bias=0/direct=3/weightb=1/open_gop=0/weightp=2/keyint=240/keyint_min=23/scenecut=40/intra_refresh=0/rc_lookahead=150/rc=2pass/mbtree=1/bitrate=15250/ratetol=1.0/qcomp=0.70/qpmin=0/qpmax=69/qpstep=4/cplxblur=20.0/qblur=0.5/vbv_maxrate=50000/vbv_bufsize=62500/nal_hrd=none/filler=0/ip_ratio=1.40/aq=3: 0.80
    Language : Russian
    Default : Yes
    Forced : No
    Audio
    ID : 2
    Format : DTS
    Format/Info : Digital Theater Systems
    Mode : 16
    Format settings, Endianness : Big
    Codec ID : A_DTS
    Duration : 1h 31mn
    Bit rate mode : Constant
    Bit rate : 1 536 Kbps
    Channel(s) : 6 channels
    Channel positions : Front: L C R, Side: L R, LFE
    Sampling rate : 48.0 KHz
    Frame rate : 93.750 fps (512 spf)
    Bit depth : 16 bits
    Compression mode : Lossy
    Stream size : 1 001 MiB (9%)
    Language : Russian
    Default : Yes
    Forced : No
    Скриншоты


    Онлайн видео Мафия: Игра на выживание (2015) BDRip 1080p от ExKinoRay


    Размер скачиваемого торрента: 10.66 GB (11447330282 Bytes)

    Мафия: Игра на выживание (2015) BDRip 1080p от ExKinoRay | Лицензия
    загрузка...
    Рейтинг →
     (голосов: 1, оценка 3/5, голосовать можно 1 раз )

    Другие торренты по теме:

  • Мафия: Игра на выживание (2016) WEB-DL 1080p | iTunes
  • Мафия. Игра на выживание (2016)
  • Мафия: Игра на выживание (2015) HDRip от MegaPeer | Лицензия
  • Мафия: Игра на выживание (2016) Blu-Ray от HDClub | 3D-Video | Лицензия
  • Мафия: Игра на выживание (2015) BDRip 1080p | Лицензия
  • Мафия: Игра на выживание (2015) BDRip 720p от HELLYWOOD | Лицензия
  • Мафия: Игра на выживание (2015) BDRip-AVC от HELLYWOOD | Лицензия


    • Комментарии (0):

      Информация

      Информация

        Посетители, находящиеся в группе Гости, не могут оставлять комментарии в данной новости.

        ↓ Меню



        ↓ Опрос

        А Вы добавили сайт в закладки?
        Да
        Не


        Top 10 за месяц (Фильмы)