.
Авторизация | Регистрация
» » Человек в сером / The Gray Man (2007) BDRip 720p | L1 скачать торрент бесплатно




    Человек в сером / The Gray Man (2007) BDRip 720p | L1 скачать торрент бесплатно

    Опубликовал: Админ | Дата: 29-05-2016, 05:00 | Просмотров: 66



    Детально о кино
    Русское название: Человек в сером/Серый человек
    Русское название в мировом прокате: The Gray Man
    Создали в: 2007
    Категория жанра: триллер, детектив, драма
    Главный режиссер: Скотт Л. Флинн

    Актеры
    Патрик Бошо, Джек Конли, Джон Эйлуорд, Джиллиан Арменанте, Сайлас Уэйр Митчелл, Вито Руджинис, Молли Миллиган, Лекси Эйнсуорт, Шон Сентер, Бен Холл

    Сюжет фильма

    Детектив Уилл Кинг идёт по следу маньяка по имени Альберт Гамильтон Фиш (1870-1936). Фиш также был известен под прозвищами: Лунный Маньяк, Серый Человек и Бруклинский Вампир. Он был одним из самых известных серийных убийц начала 20-го века в Америке. А получил он свою известность благодаря ужасным преступлениям, а именно - убийствам детей с дальнейшим поеданием их плоти... По сравнению с Альбертом Фишем, Ганнибал Лектер был просто святым. Тем не менее, это безусловно необычный фильм ужасов. Скорее, это история о противостоянии одного охотника - другому... В этом фильме намеренно не показаны сами сцены убийств, но зато показано возбуждение преступника от предвкушения самой трапезы, а это выглядит намного страшнее... Тут больше сделан упор на атмосферу происходящего, на безумие царящее в голове самого маньяка и чувство страха, которое витает в воздухе и окружает буквально всё вокруг...

    Создали в: США
    Время просмотра: 01: 36: 48
    Перевод текста: Любительский одноголосый закадровый Den904
    Файл
    Качество фильма: BDRip 720p
    Контейнер: MKV
    Кодек для видео: x264
    Информация о видео: 1280x696, 23.976 fps, MPEG-4 AVC ~4950 kbps avg, 0.232 bit/pixel
    Информация о звуке №1: 48 kHz, AC3 Dolby Digital, 2/0 (L, R) ch, 192 kbps
    Информация о звуке №2: 48 kHz, DTS, 3/2 (L, C, R, l, r) + LFE ch, 1510 kbps
    MediaInfo
    General
    Complete name : The.Gray.Man.2007.720p.BDRip.x264.mkv
    Format : Matroska
    Format version : Version 4/Version 2
    File size : 4.50 GiB
    Duration : 1h 36mn
    Overall bit rate : 6 651 Kbps
    Encoded date : UTC 2016-05-17 00: 16: 45
    Writing application : mkvmerge v6.2.0 (;Promised Land;) built on Apr 28 2013 18: 50: 30
    Writing library : libebml v1.3.0 + libmatroska v1.4.0
    Video
    ID : 1
    Format : AVC
    Format/Info : Advanced Video Codec
    Format profile : High@L4.1
    Format settings, CABAC : Yes
    Format settings, ReFrames : 5 frames
    Codec ID : V_MPEG4/ISO/AVC
    Duration : 1h 36mn
    Bit rate : 4 950 Kbps
    Width : 1 280 pixels
    Height : 696 pixels
    Display aspect ratio : 16: 9
    Frame rate : 23.976 fps
    Color space : YUV
    Chroma subsampling : 4: 2: 0
    Bit depth : 8 bits
    Scan type : Progressive
    Bits/(Pixel*Frame) : 0.232
    Stream size : 3.26 GiB (72%)
    Title : X264
    Writing library : x264 core 124 r2197 69a0443
    Encoding settings : cabac=1/ref=5/deblock=1: 0: 0/analyse=0x3: 0x133/me=umh/subme=7/psy=1/psy_rd=1.00: 0.00/mixed_ref=1/me_range=16/chroma_me=1/trellis=1/8x8dct=1/cqm=0/deadzone=21, 11/fast_pskip=0/chroma_qp_offset=-2/threads=4/sliced_threads=0/nr=0/decimate=1/interlaced=0/bluray_compat=0/constrained_intra=0/bframes=3/b_pyramid=2/b_adapt=2/b_bias=0/direct=3/weightb=1/open_gop=0/weightp=2/keyint=240/keyint_min=23/scenecut=40/intra_refresh=0/rc_lookahead=50/rc=2pass/mbtree=1/bitrate=4950/ratetol=1.0/qcomp=0.60/qpmin=0/qpmax=69/qpstep=4/cplxblur=20.0/qblur=0.5/ip_ratio=1.40/aq=1: 1.00
    Language : English
    Audio #1
    ID : 2
    Format : AC-3
    Format/Info : Audio Coding 3
    Mode extension : CM (complete main)
    Codec ID : A_AC3
    Duration : 1h 36mn
    Bit rate mode : Constant
    Bit rate : 192 Kbps
    Channel(s) : 2 channels
    Channel positions : Front: L R
    Sampling rate : 48.0 KHz
    Bit depth : 16 bits
    Compression mode : Lossy
    Delay relative to video : 2s 0ms
    Stream size : 133 MiB (3%)
    Title : Den904
    Language : Russian
    Audio #2
    ID : 3
    Format : DTS
    Format/Info : Digital Theater Systems
    Codec ID : A_DTS
    Duration : 1h 36mn
    Bit rate mode : Constant
    Bit rate : 1 510 Kbps
    Channel(s) : 6 channels
    Channel positions : Front: L C R, Side: L R, LFE
    Sampling rate : 48.0 KHz
    Bit depth : 24 bits
    Compression mode : Lossy
    Stream size : 1.02 GiB (23%)
    Title : DTS
    Language : English
    Menu
    00: 00: 00.000 : en: 00: 00: 00.000
    00: 07: 59.938 : en: 00: 07: 59.938
    00: 15: 59.959 : en: 00: 15: 59.959
    00: 23: 59.938 : en: 00: 23: 59.938
    00: 31: 59.960 : en: 00: 31: 59.960
    00: 39: 59.981 : en: 00: 39: 59.981
    00: 47: 59.919 : en: 00: 47: 59.919
    00: 55: 59.898 : en: 00: 55: 59.898
    01: 03: 59.919 : en: 01: 03: 59.919
    01: 11: 59.941 : en: 01: 11: 59.941
    01: 19: 59.920 : en: 01: 19: 59.920
    01: 27: 59.858 : en: 01: 27: 59.858
    Скриншоты




    Онлайн видео Человек в сером


    Размер скачиваемого торрента: 4.50 GB (4828265814 Bytes)

    Человек в сером/The Gray Man (2007) BDRip 720p | L1
    загрузка...
    Рейтинг →
     (голосов: 1, оценка 5/5, голосовать можно 1 раз )

    Другие торренты по теме:

  • Серый человек / The Gray Man (2007) HDRip | L1 торрент скачать бесплатно
  • Серый человек / The Gray Man (2007) DVDRip от Brazzass торрент скачать бесплатно
  • Человек-приманка (1-12 серии из 16) скачать через торрент бесплатно
  • Последний человек на Земле (2 сезон: 1-4 серия из 13) / The Last Man on Earth / 2015 / ПД (Baibako) / WEB-DL (720p) скачать торрент бесплатно
  • Последний человек на Земле (2 сезон: 1-4 серии из 13) / The Last Man on Earth / 2015 / ПД (Jaskier) / HDTVRip (720p) скачать торрент бесплатно
  • Последний человек на Земле (2 сезон: 1-4 серии из 13) / The Last Man on Earth / 2015 / ЛД (ColdFilm) / HDTVRip скачать торрент бесплатно
  • Последний человек на Земле (2 сезон: 1-4 серии из 13) / The Last Man on Earth / 2015 / ПД (Кубик в Кубе) / WEB-DLRip скачать торрент бесплатно
  • Человек в высоком замке (1 сезон: 1-2 серии из 10) / The Man in the High Castle / 2015 / ЛМ (OMSKBIRD records) / WEBRip скачать торрент бесплатно


    • Комментарии (0):

      Информация

      Информация

        Посетители, находящиеся в группе Гости, не могут оставлять комментарии в данной новости.

        ↓ Меню



        ↓ Опрос

        А Вы добавили сайт в закладки?
        Да
        Не


        Top 10 за неделю (Фильмы)