.
Авторизация | Регистрация
» » Эдди Орел / Eddie the Eagle (2016) WEB-DLRip-AVC от Scarabey | iTunes скачать торрент бесплатно




    Эдди Орел / Eddie the Eagle (2016) WEB-DLRip-AVC от Scarabey | iTunes скачать торрент бесплатно

    Опубликовал: Админ | Дата: 30-05-2016, 05:00 | Просмотров: 175



    Создали в: 2016
    Снималось в: Великобритания, США, Германия
    Категория жанра: драма, комедия, биография, спорт
    Время просмотра: 01: 46: 10
    Перевод текста: Профессиональный (полное дублирование) iTunes
    Субтитры подготовлены: форсированные, русские
    Главный режиссер: Декстер Флетчер/Dexter Fletcher

    Актеры
    Тэрон Эджертон, Хью Джекман, Кристофер Уокен, Джо Хартли, Том Костелло, Кит Аллен, Дикон Толсон, Джек Костелло, Марк Бентон, Тим МакИннерни
    Описание: Фильм повествует о трамплинисте Эдди, по прозвищу Орел. Он прославился благодаря своим неудачам, ибо на всех соревнованиях он занимал последние места.
    Качество фильма видео: WEB-DLRip-AVC
    Тип видео видео: MKV
    Информация о видео: 1024Х426, 23.976 fps, AVC ~2405 kbps avgl
    Информация о звуке: 48 kHz, AC3 Dolby Digital, 3/2 (L, C, R, l, r) + LFE ch, ~384 kbps
    Релиз подготовил:
    АНОНСЫ МОИХ РАЗДАЧ!


    Скриншоты

    МедиаИнфо

    Эдди ОрелEddie.the.Eagle.2016_AVC_WEB-DLRip_scarabey.org.mkv
    Format : Matroska
    Format version : Version 4/Version 2
    File size : 2.07 GiB
    Duration : 1h 46mn
    Overall bit rate : 2 788 Kbps
    Encoded date : UTC 2016-05-27 15: 48: 15
    Writing application : mkvmerge v6.1.0 (;Old Devil;) built on Mar 4 2013 09: 10: 42
    Writing library : libebml v1.3.0 + libmatroska v1.4.0
    Video
    ID : 1
    Format : AVC
    Format/Info : Advanced Video Codec
    Format profile : High@L4.1
    Format settings, CABAC : Yes
    Format settings, ReFrames : 10 frames
    Codec ID : V_MPEG4/ISO/AVC
    Duration : 1h 46mn
    Bit rate : 2 405 Kbps
    Width : 1 024 pixels
    Height : 426 pixels
    Display aspect ratio : 2.35: 1
    Original display aspect ratio : 2.35: 1
    Frame rate mode : Constant
    Frame rate : 23.976 fps
    Color space : YUV
    Chroma subsampling : 4: 2: 0
    Bit depth : 8 bits
    Scan type : Progressive
    Bits/(Pixel*Frame) : 0.230
    Stream size : 1.74 GiB (84%)
    Writing library : x264 core 148 r2597 e86f3a1
    Encoding settings : cabac=1/ref=10/deblock=1: -3: -2/analyse=0x3: 0x113/me=umh/subme=10/psy=1/psy_rd=1.00: 0.00/mixed_ref=1/me_range=32/chroma_me=1/trellis=2/8x8dct=1/cqm=0/deadzone=21, 11/fast_pskip=1/chroma_qp_offset=-2/threads=12/lookahead_threads=2/sliced_threads=0/nr=0/decimate=0/interlaced=0/bluray_compat=0/constrained_intra=0/bframes=8/b_pyramid=2/b_adapt=2/b_bias=0/direct=3/weightb=1/open_gop=0/weightp=2/keyint=240/keyint_min=24/scenecut=40/intra_refresh=0/rc_lookahead=40/rc=2pass/mbtree=1/bitrate=2405/ratetol=1.0/qcomp=0.60/qpmin=0/qpmax=69/qpstep=4/cplxblur=20.0/qblur=0.5/ip_ratio=1.40/aq=1: 1.00
    Default : Yes
    Forced : No
    Audio
    ID : 2
    Format : AC-3
    Format/Info : Audio Coding 3
    Mode extension : CM (complete main)
    Format settings, Endianness : Big
    Codec ID : A_AC3
    Duration : 1h 46mn
    Bit rate mode : Constant
    Bit rate : 384 Kbps
    Channel(s) : 6 channels
    Channel positions : Front: L C R, Side: L R, LFE
    Sampling rate : 48.0 KHz
    Bit depth : 16 bits
    Compression mode : Lossy
    Stream size : 292 MiB (14%)
    Title : Дубляж - iTunes
    Default : Yes
    Forced : No
    Text
    ID : 3
    Format : UTF-8
    Codec ID : S_TEXT/UTF8
    Codec ID/Info : UTF-8 Plain Text
    Title : Русские, форсированные
    Language : Russian
    Default : Yes
    Forced : No


    Онлайн видео Эдди Орел


    Размер скачиваемого торрента: 2.07 GB (2220199156 Bytes)

    Эдди Орел/Eddie the Eagle (2016) WEB-DLRip-AVC от Scarabey | iTunes
    загрузка...
    Рейтинг →
     (голосов: 1, оценка 3/5, голосовать можно 1 раз )

    Другие торренты по теме:

  • Эдди Орел / Eddie the Eagle (2016) WEBRip 720p | Line скачать торрент бесплатно
  • Эдди Орел / Eddie the Eagle (2016) WEB-DLRip от Scarabey | iTunes скачать торрент бесплатно
  • Эдди Орел / Eddie the Eagle (2016) WEB-DLRip от Scarabey | iTunes скачать торрент бесплатно
  • Эдди «Орел» / Eddie the Eagle (2016) скачать торрент бесплатно
  • Эдди Орел / Eddie the Eagle (2016) WEB-DL 720p | iTunes скачать торрент бесплатно
  • Эдди Орел / Eddie the Eagle (2016) BDRip 720p | iTunes скачать торрент бесплатно
  • Эдди Орел / Eddie the Eagle (2016) HDRip от MegaPeer | iTunes скачать торрент бесплатно
  • Эдди Орел / Eddie the Eagle (2016) BDRip 1080p от ExKinoRay | iTunes скачать торрент бесплатно


    • Комментарии (0):

      Информация

      Информация

        Посетители, находящиеся в группе Гости, не могут оставлять комментарии в данной новости.

        ↓ Меню



        ↓ Опрос

        А Вы добавили сайт в закладки?
        Да
        Не


        Top 10 за неделю (Фильмы)