.
Авторизация | Регистрация




Охрана (2015) WEB-DL 720p | iTunes скачать торрент бесплатно

Опубликовал: Админ | Дата: 31-05-2016, 05:00 | Просмотров: 61



Детально о кино
Русское название: Охрана
Русское название в мировом прокате: Охрана
Создали в: 2015
Категория жанра: драма, комедия
Главный режиссер: Александр Прошкин

Актеры
Виктор Сухоруков, Антон Шагин, Мария Коровина, Алексей Кортнев, Сергей Дрейден, Ирина Вилкова, Илья Ждаников, Елена Галибина, Ольга Лапшина, Никита Кукушкин

Сюжет фильма
Ей 26 лет. Рыжеволосая Клавдия работает в охране разоряющегося металлургического завода. Ее семья — отчим-инвалид. О любви и замужестве уже и не мечтает, но страстно хочет ребенка. Ироничная, местами очень смешная и трогательная история о вспыхнувшем чувстве и превратностях судьбы.


Снималось в: Россия/Амкарт
Время просмотра: 01: 51: 11
Тип перевода: Оригинальное iTunes
Файл
Тип видео: MKV
Качество фильма: WEB-DL 720p
Информация о видео: MPEG-4 AVC, 3812 Kb/s, 1280x536@960x536
Информация о звуке: AC3, 192 kb/s (2 ch)
MI

Format : Matroska
Format version : Version 4/Version 2
File size : 3.17 GiB
Duration : 1h 51mn
Overall bit rate : 4 085 Kbps
Encoded date : UTC 2016-05-30 15: 21: 56
Writing application : mkvmerge v6.8.0 (;Theme for Great Cities;) 64bit built on Mar 2 2014 21: 34: 26
Writing library : libebml v1.3.0 + libmatroska v1.4.1
Video
ID : 1
Format : AVC
Format/Info : Advanced Video Codec
Format profile : Main@L3.1
Format settings, CABAC : No
Format settings, ReFrames : 2 frames
Codec ID : V_MPEG4/ISO/AVC
Duration : 1h 51mn
Bit rate : 3 812 Kbps
Width : 960 pixels
Height : 536 pixels
Display aspect ratio : 2.40: 1
Frame rate mode : Constant
Frame rate : 25.000 fps
Color space : YUV
Chroma subsampling : 4: 2: 0
Bit depth : 8 bits
Scan type : Progressive
Bits/(Pixel*Frame) : 0.296
Stream size : 2.96 GiB (93%)
Language : English
Default : Yes
Forced : No
Color range : Limited
Color primaries : BT.709
Transfer characteristics : BT.709
Matrix coefficients : BT.709
Audio
ID : 2
Format : AC-3
Format/Info : Audio Coding 3
Mode extension : CM (complete main)
Format settings, Endianness : Big
Codec ID : A_AC3
Duration : 1h 51mn
Bit rate mode : Constant
Bit rate : 192 Kbps
Channel(s) : 2 channels
Channel positions : Front: L R
Sampling rate : 48.0 KHz
Bit depth : 16 bits
Compression mode : Lossy
Stream size : 153 MiB (5%)
Language : Russian
Default : Yes
Forced : Yes
Menu
00: 00: 00.000 : en: Р“Рава 1
00: 05: 49.680 : en: Р“Рава 2
00: 13: 53.520 : en: Р“Рава 3
00: 17: 55.360 : en: Р“Рава 4
00: 25: 00.400 : en: Р“Рава 5
00: 31: 33.560 : en: Р“Рава 6
00: 36: 04.720 : en: Р“Рава 7
00: 42: 02.480 : en: Р“Рава 8
00: 49: 18.040 : en: Р“Рава 9
00: 57: 28.480 : en: Р“Рава 10
01: 03: 46.200 : en: Р“Рава 11
01: 10: 11.960 : en: Р“Рава 12
01: 15: 41.200 : en: Р“Рава 13
01: 21: 04.120 : en: Р“Рава 14
01: 25: 35.920 : en: Р“Рава 15
01: 30: 48.480 : en: Р“Рава 16
01: 34: 44.160 : en: Р“Рава 17
01: 40: 44.080 : en: Р“Рава 18
Скриншоты






Онлайн видео Охрана (2015) WEB-DL 720p


Размер скачиваемого торрента: 3.17 GB (3406411937 Bytes)

Охрана (2015) WEB-DL 720p | iTunes
загрузка...
Рейтинг →
 (голосов: 1, оценка 3/5, голосовать можно 1 раз )

Другие торренты по теме:

  • Охрана (2015) WEB-DLRip | КПК от ImperiaFilm | iTunes скачать торрент бесплатно


    • Комментарии (0):

      Информация

      Информация

        Посетители, находящиеся в группе Гости, не могут оставлять комментарии в данной новости.

        ↓ Меню



        ↓ Опрос

        А Вы добавили сайт в закладки?
        Да
        Не


        Top 10 за неделю (Фильмы)