.
Авторизация | Регистрация
Хочешь лучшие торренты? Добавь свой email!
Добавить
» » Все по новой / The Do Over (2016) WEBRip 1080p от ExKinoRay | L торрент скачать бесплатно




    Все по новой / The Do Over (2016) WEBRip 1080p от ExKinoRay | L торрент скачать бесплатно

    Опубликовал: Админ | Дата: 1-06-2016, 05:00 | Просмотров: 79



    Детально о кино
    Русское название: Все по новой
    Русское название в мировом прокате: The Do Over
    Создали в: 2016
    Категория жанра: Комедия
    Главный режиссер: Стивен Брилл

    Актеры
    Адам Сэндлер, Пола Пэттон, Кэтрин Хан, Шон Эстин, Дэвид Спейд, Луис Гусман, Джаред Сэндлер, Ник Свардсон, Рене Тейлор, Мэтт Уолш

    Сюжет фильма

    Два неудачника решают имитировать свою смерть, чтобы начать жизнь с чистого листа. Однако их новая жизнь оказывается далеко не лучше прежней.

    Снималось в: США
    Киностудия: Happy Madison Productions
    Время просмотра: 01: 47: 39
    Перевод текста: Любительский многоголосый (закадровый) | Parovoz Production
    Файл
    Кодек для видео: MPEG-4
    Качество фильма: WEBRip (1080p)
    Информация о видео: 1920x1036, 9741 Kbit/s, 23.976 fps
    Информация о звуке:
    Информация о звуке #01: 48 kHz, AC3, 2.0, 192 Kbps | Любительский многоголосый (закадровый), Parovoz Production | AC3|
    Информация о звуке #02: 48 kHz, AC3, 5.1, 640 kbps | Оригинал | AC3|
    Субтитры: Английские
    Релиз подготовил: Автор релиза:

    MI
    General
    Unique ID : 187344213142499617906785119012931010039 (0x8CF12ED91485CFCE8059C649DAB07DF7)
    Complete name : F: VideoThe.Do.Over.2016.WEBRip.1080p.ExKinoRay.mkv
    Format : Matroska
    Format version : Version 4/Version 2
    File size : 7.96 GiB
    Duration : 1h 47mn
    Overall bit rate : 10.6 Mbps
    Movie name : The.Do.Over.2016.WEBRip.1080p.ExKinoRay
    Encoded date : UTC 2016-05-31 11: 45: 21
    Writing application : mkvmerge v8.3.0 (;Over the Horizon;) 64bit
    Writing library : libebml v1.3.1 + libmatroska v1.4.2
    Video
    ID : 1
    Format : AVC
    Format/Info : Advanced Video Codec
    Format profile : High@L4.1
    Format settings, CABAC : Yes
    Format settings, ReFrames : 4 frames
    Codec ID : V_MPEG4/ISO/AVC
    Duration : 1h 47mn
    Bit rate : 9 741 Kbps
    Width : 1 920 pixels
    Height : 1 036 pixels
    Display aspect ratio : 1.85: 1
    Frame rate mode : Constant
    Frame rate : 23.976 (24000/1001) fps
    Color space : YUV
    Chroma subsampling : 4: 2: 0
    Bit depth : 8 bits
    Scan type : Progressive
    Bits/(Pixel*Frame) : 0.204
    Stream size : 7.33 GiB (92%)
    Title : The.Do.Over.2016.WEBRip.1080p.ExKinoRay
    Writing library : x264 core 148 r2692 64f4e24
    Encoding settings : cabac=1/ref=4/deblock=1: -3: -3/analyse=0x3: 0x133/me=umh/subme=10/psy=1/psy_rd=1.00: 0.15/mixed_ref=1/me_range=32/chroma_me=1/trellis=2/8x8dct=1/cqm=0/deadzone=21, 11/fast_pskip=1/chroma_qp_offset=-3/threads=12/lookahead_threads=2/sliced_threads=0/nr=0/decimate=1/interlaced=0/bluray_compat=0/constrained_intra=0/bframes=8/b_pyramid=2/b_adapt=2/b_bias=0/direct=3/weightb=1/open_gop=0/weightp=2/keyint=240/keyint_min=23/scenecut=40/intra_refresh=0/rc_lookahead=60/rc=crf/mbtree=1/crf=17.0/qcomp=0.70/qpmin=0/qpmax=69/qpstep=4/ip_ratio=1.40/aq=3: 0.80
    Language : English
    Default : Yes
    Forced : No
    Color range : Limited
    Color primaries : BT.709
    Transfer characteristics : BT.709
    Matrix coefficients : BT.709
    Audio #1
    ID : 2
    Format : AC-3
    Format/Info : Audio Coding 3
    Mode extension : CM (complete main)
    Format settings, Endianness : Big
    Codec ID : A_AC3
    Duration : 1h 47mn
    Bit rate mode : Constant
    Bit rate : 192 Kbps
    Channel(s) : 2 channels
    Channel positions : Front: L R
    Sampling rate : 48.0 KHz
    Frame rate : 31.250 fps (1536 spf)
    Compression mode : Lossy
    Stream size : 148 MiB (2%)
    Title : MVO
    Language : Russian
    Default : Yes
    Forced : No
    Audio #2
    ID : 3
    Format : AC-3
    Format/Info : Audio Coding 3
    Mode extension : CM (complete main)
    Format settings, Endianness : Big
    Codec ID : A_AC3
    Duration : 1h 47mn
    Bit rate mode : Constant
    Bit rate : 640 Kbps
    Channel(s) : 6 channels
    Channel positions : Front: L C R, Side: L R, LFE
    Sampling rate : 48.0 KHz
    Frame rate : 31.250 fps (1536 spf)
    Compression mode : Lossy
    Stream size : 493 MiB (6%)
    Language : English
    Default : No
    Forced : No
    Text
    ID : 4
    Format : UTF-8
    Codec ID : S_TEXT/UTF8
    Codec ID/Info : UTF-8 Plain Text
    Duration : 1h 39mn
    Bit rate : 95 bps
    Count of elements : 1991
    Stream size : 69.8 KiB (0%)
    Language : English
    Default : No
    Forced : No
    Скриншоты


    Онлайн видео Все по новой


    Размер скачиваемого торрента: 7.96 GB (8545468577 Bytes)

    Все по новой/The Do Over (2016) WEBRip 1080p от ExKinoRay | L
    загрузка...
    Рейтинг →
     (голосов: 1, оценка 5/5, голосовать можно 1 раз )

    Другие торренты по теме:

  • Все по новой / The Do Over (2016) WEBRip | L
  • Все по новой / The Do Over (2016) WEBRip-AVC | L
  • Все по новой / The Do Over (2016) WEBRip 720p | L
  • Все по новой / The Do Over (2016) WEBRip | КПК от ImperiaFilm | L
  • Все по новой / The Do Over (2016)
  • Все по новой / The Do Over (2016) WEBRip от Portablius | L


    • Комментарии (0):

      Информация

      Информация

        Посетители, находящиеся в группе Гости, не могут оставлять комментарии в данной новости.

        ↓ Меню



        ↓ Опрос

        А Вы добавили сайт в закладки?
        Да
        Не


        Top 10 за месяц (Фильмы)