.
Авторизация | Регистрация
» » Игра престолов / Game of Thrones (2016) WEB-DL 720p | OMSKBIRD records скачать торрент бесплатно




    Игра престолов / Game of Thrones (2016) WEB-DL 720p | OMSKBIRD records скачать торрент бесплатно

    Опубликовал: Админ | Дата: 1-06-2016, 16:55 | Просмотров: 42



    Детально о кино
    Русское название: Игра престолов
    Русское название в мировом прокате: Game of Thrones
    Создали в: 2016
    Категория жанра: Фэнтези, драма, приключения, экранизация
    Главный режиссер: Алан Тейлор, Дэвид Наттер/Alan Taylor, David Nutter

    Актеры
    Лена Хиди, Питер Динклэйдж, Мишель Фэйрли, Эмилия Кларк, Кит Харингтон, Николай Костер-Валдау, Иэн Глен, Эйден Гиллен, Элфи Оуэн-Аллен, Мэйси Уильямс, Софи Тернер, Сибель Кекилли, Джеймс Космо, Стивен Диллэйн, Гетин Энтони, Гвендолин Кристи, Натали Дормер

    Сюжет фильма

    Игра престолов новый сериал HBO, основанный на бестселлерах Джорджа Р.Р. Мартина. В мире, где лето и зимы длятся десятилетиями, на кону корона Вестероса. Предательство, похоть, интриги и сверхъестественные силы сотрясают все четыре стороны Королевства — от плетущего интриги юга, диких восточных земель, до замерзшего севера и древней Стены, что защищает королевство от тьмы за нею. Короли и королевы, рыцари и мятежники, лжецы и благородные люди борются за власть в кровавом сражении за Железный Трон.

    Снималось в: США
    Время просмотра: ~ 00: 50: 00 серия
    Перевод текста: Любительский (многоголосый закадровый) |OMSKBIRD records
    Файл
    Кодек для видео: MPEG-4 AVC/H.264
    Качество фильма: WEB-DL 720p
    Информация о видео: H.264, 1280x718 (16: 9), 23, 976 fps, ~3900 kbps, 0.176 bit/pixel
    Информация о звуке:
    Информация о звуке rus: AC3, 48 kHz, 6 ch, 384 kbps |OMSKBIRD records
    Информация о звуке eng: AC3, 48 kHz, 6 ch, 384 kbps | original
    Субтитры: русские (OmskBird), английские
    Семпл
    Релиз:

    Релиз-группа:
    Релиз подготовил: Grandfather61
    Роли озвучивали: Павел Ярощик, Ольга Федорова, Анна Тух, Алексей Гнеушев, Андрей Астров, Максим Максимов
    Перевод: Екатерина Кузнецова
    Звукорежиссер: Павел Квентов
    Постер: Ксения Просветова
    Сборка, работа со звуком: Grandfather61
    Список серий:

    01. The Red Woman
    02. Home
    03. Oathbreaker
    04. Book of the Stranger
    05. The Door
    06. Blood of My Blood
    MediaInfo:

    Общее
    Уникальный идентификатор : 175508969361781390047937416474810816384 (0x8409CC471F4CE5999E699C09ABCE9780)
    Полное имя : G: FilmsGame.of.Thrones.S06.720p.WEB-DL.OmskBirdGame.of.Thrones.S06E01.720p.WEB-DL.OmskBird.mkv
    Формат : Matroska
    Версия формата : Version 4/Version 2
    Размер файла : 1, 62 Гбайт
    Продолжительность : 50 м.
    Общий поток : 4640 Кбит/сек
    Дата кодирования : UTC 2016-04-26 05: 56: 02
    Программа кодирования : mkvmerge v8.6.1 (;Flying;) 64bit
    Библиотека кодирования : libebml v1.3.3 + libmatroska v1.4.4
    Видео
    Идентификатор : 1
    Формат : AVC
    Формат/Информация : Advanced Video Codec
    Профиль формата : High@L3.1
    Параметр CABAC формата : Нет
    Параметр ReFrames формата : 2 кадра
    Идентификатор кодека : V_MPEG4/ISO/AVC
    Продолжительность : 50 м.
    Битрейт : 3869 Кбит/сек
    Ширина : 1280 пикселей
    Высота : 718 пикселей
    Соотношение сторон : 16: 9
    Режим частоты кадров : Постоянный
    Частота кадров : 23, 976 (23976/1000) кадра/сек
    Цветовое пространство : YUV
    Субдискретизация насыщенности : 4: 2: 0
    Битовая глубина : 8 бит
    Тип развёртки : Прогрессивная
    Бит/(Пиксели*Кадры) : 0.176
    Размер потока : 1, 35 Гбайт (83%)
    Язык : English
    Default : Да
    Forced : Нет
    colour_range : Limited
    Основные цвета : BT.709
    Характеристики трансфера : BT.709
    Коэффициенты матрицы : BT.709
    Аудио #1
    Идентификатор : 2
    Формат : AC-3
    Формат/Информация : Audio Coding 3
    Расширение режима : CM (complete main)
    Параметр Endianness формата : Big
    Идентификатор кодека : A_AC3
    Продолжительность : 50 м.
    Вид битрейта : Постоянный
    Битрейт : 384 Кбит/сек
    Каналы : 6 каналов
    Расположение каналов : Front: L C R, Side: L R, LFE
    Частота : 48, 0 КГц
    Частота кадров : 31, 250 кадров/сек (1536 spf)
    Метод сжатия : С потерями
    Размер потока : 137 Мбайт (8%)
    Заголовок : OmskBird 5.1
    Язык : Russian
    Default : Да
    Forced : Нет
    Аудио #2
    Идентификатор : 3
    Формат : AC-3
    Формат/Информация : Audio Coding 3
    Расширение режима : CM (complete main)
    Параметр Endianness формата : Big
    Идентификатор кодека : A_AC3
    Продолжительность : 50 м.
    Вид битрейта : Постоянный
    Битрейт : 384 Кбит/сек
    Каналы : 6 каналов
    Расположение каналов : Front: L C R, Side: L R, LFE
    Частота : 48, 0 КГц
    Частота кадров : 31, 250 кадров/сек (1536 spf)
    Метод сжатия : С потерями
    Размер потока : 137 Мбайт (8%)
    Заголовок : original 5.1
    Язык : English
    Default : Нет
    Forced : Нет
    Текст #1
    Идентификатор : 4
    Формат : UTF-8
    Идентификатор кодека : S_TEXT/UTF8
    Идентификатор кодека/Информация : UTF-8 Plain Text
    Продолжительность : 42 м.
    Битрейт : 76 бит/сек
    Count of elements : 458
    Размер потока : 23, 9 Кбайт (0%)
    Заголовок : rus (OmskBird)
    Язык : Russian
    Default : Нет
    Forced : Нет
    Текст #2
    Идентификатор : 5
    Формат : UTF-8
    Идентификатор кодека : S_TEXT/UTF8
    Идентификатор кодека/Информация : UTF-8 Plain Text
    Продолжительность : 48 м.
    Битрейт : 42 бит/сек
    Count of elements : 479
    Размер потока : 15, 1 Кбайт (0%)
    Заголовок : CC
    Язык : English
    Default : Нет
    Forced : Нет
    Скриншоты


    Внимание! Раздача ведётся путём добавления новых серий.

    color=brown
    Внимание! Раздача ведётся путём добавления новых серий; при каждом добавлении создётся новый торрент. Чтобы начать докачку новой серии, пользователям необходимо сделать следующее:
    Остановить скачивание.
    Удалить старый торрент у себя из клиента (старые серии удалять не надо).
    Скачать новый торрент и запустить его у себя в клиенте вместо старого, при этом указать клиенту путь в старую папку куда и должно происходить скачивание новых серий.
    Ваш клиент при этом должен произвести хеширование (проверку) старой папки (если не производит сам - помогите ему сделать это), и будет докачивать только те серии которых у вас ещё нет. Старые серии при этом не удаляются, а продолжают раздаваться!
    Eсли вы уже удалили старые серии, то предотвратить повторную закачку старых серий можно, отжав галочку в соответсвующих местах при запуске нового торрента. По возможности, желательно не удалять старые серии как можно дольше чтобы релизёр не столько продолжал раздавать старые серии, а смог сконцентрироваться на новых.

    Релиз подготовил: Grandfather61 (skyns61)
    Залил: skyn s61

    Онлайн видео Игра престолов


    Размер скачиваемого торрента: 10.55 GB (11327351743 Bytes)

    Игра престолов/Game of Thrones (2016) WEB-DL 720p | OMSKBIRD records
    загрузка...
    Рейтинг →
     (голосов: 1, оценка 5/5, голосовать можно 1 раз )

    Другие торренты по теме:



      Комментарии (0):

      Информация

      Информация

        Посетители, находящиеся в группе Гости, не могут оставлять комментарии в данной новости.

        ↓ Меню



        ↓ Опрос

        А Вы добавили сайт в закладки?
        Да
        Не


        Top 10 за неделю (Фильмы)