.
Авторизация | Регистрация
» » Боги Египта / Gods of Egypt (2016) BDRemux 1080p от ExKinoRay | D, A | Лицензия скачать торрент бесплатно




    Боги Египта / Gods of Egypt (2016) BDRemux 1080p от ExKinoRay | D, A | Лицензия скачать торрент бесплатно

    Опубликовал: Админ | Дата: 2-06-2016, 05:00 | Просмотров: 66



    Детально о кино
    Русское название: Боги Египта
    Русское название в мировом прокате: Gods of Egypt
    Создали в: 2016
    Категория жанра: Фэнтези, приключения
    Главный режиссер: Алекс Пройас

    Актеры
    Брентон Туэйтс, Джерард Батлер, Николай Костер-Валдау, Чэдвик Боузмэн, Элоди Юнг, Кортни Итон, Руфус Сьюэлл, Джеффри Раш, Брайан Браун, Рэйчел Блэйк, Эмма Бут, Александр Инглэнд, Горан Д’Клюе, Йайа Ден, Эбби Ли, Кеннет Рэнсом, Джон Самаха

    Сюжет фильма

    Злобный бог пустыни Сет вероломно убивает своего брата Осириса и узурпирует власть над египетским царством. Бог неба Гор, истинный наследник трона, ослеплен и отправлен в изгнание. Однако, посреди наступившего хаоса и мрака нашелся тот, кто усомнился в правоте нового царя. Чтобы вернуть свою возлюбленную к жизни, молодой и находчивый вор заключает сделку с одержимым местью Гором. Им предстоит удивительное и преисполненное опасностями путешествие, где их будут поджидать засады, огонь неприятеля, трагедии ревности и чудесные спасения.

    Снималось в: США
    Киностудия: Mystery Clock Cinema, Pyramania, Summit Entertainment, Thunder Road
    Время просмотра: 02: 07: 02
    Перевод текста: Дублированный | Лицензия (Централ Партнершип)
    Авторский одноголосый (закадровый) | А. Матвеев
    Файл
    Кодек для видео: MPEG-4
    Качество фильма: BDRemux 1080p
    Информация о видео: 1920x1080, 28.7 Mbit/s, 23.976 fps
    Информация о звуке:
    Информация о звуке #01: 48 kHz, DTS-HD MA, 5.1, 2227 Kbps | Дублированный, Лицензия (Централ Партнершип) | DTS-HD MA
    Информация о звуке #02: 48 kHz, AC3, 5.1, 640 Kbps | Дублированный, Лицензия (Централ Партнершип) | AC3
    Информация о звуке #03: 48 kHz, AC3, 5.1, 640 Kbps | Авторский одноголосый (закадровый), А. Матвеев | AC3
    Информация о звуке #04: 48 kHz, DTS: X MA, 7.1, 4735 kbps | Оригинал | DTS: X MA
    Субтитры: Русские (full, A.Matveev), английские (srt, SDH, SDH-Colored)
    Релиз подготовил: Автор релиза:

    MI
    General
    Unique ID : 239962056059258417536768703487029389313 (0xB48702CC2F855810A5EB4F7D7FFDA801)
    Complete name : F: VideoGod.of.Egypt.2016..BDREMUX..1080p.ExKinoRay.mkv
    Format : Matroska
    Format version : Version 4/Version 2
    File size : 32.8 GiB
    Duration : 2h 7mn
    Overall bit rate mode : Variable
    Overall bit rate : 36.9 Mbps
    Movie name : God.of.Egypt.2016..BDREMUX..1080p.ExKinoRay
    Encoded date : UTC 2016-06-01 16: 30: 25
    Writing application : mkvmerge v8.3.0 (;Over the Horizon;) 64bit
    Writing library : libebml v1.3.1 + libmatroska v1.4.2
    Video
    ID : 1
    Format : AVC
    Format/Info : Advanced Video Codec
    Format profile : High@L4.1
    Format settings, CABAC : Yes
    Format settings, ReFrames : 4 frames
    Codec ID : V_MPEG4/ISO/AVC
    Duration : 2h 7mn
    Bit rate mode : Variable
    Bit rate : 28.7 Mbps
    Maximum bit rate : 37.0 Mbps
    Width : 1 920 pixels
    Height : 1 080 pixels
    Display aspect ratio : 16: 9
    Frame rate mode : Constant
    Frame rate : 23.976 (24000/1001) fps
    Color space : YUV
    Chroma subsampling : 4: 2: 0
    Bit depth : 8 bits
    Scan type : Progressive
    Bits/(Pixel*Frame) : 0.577
    Stream size : 25.4 GiB (78%)
    Title : God.of.Egypt.2016..BDREMUX..1080p.ExKinoRay.***селезень***
    Language : English
    Default : Yes
    Forced : No
    Audio #1
    ID : 2
    Format : DTS
    Format/Info : Digital Theater Systems
    Format profile : MA/Core
    Mode : 16
    Format settings, Endianness : Big
    Codec ID : A_DTS
    Duration : 2h 7mn
    Bit rate mode : Variable/Constant
    Bit rate : 2 227 Kbps/1 509 Kbps
    Channel(s) : 6 channels
    Channel positions : Front: L C R, Side: L R, LFE
    Sampling rate : 48.0 KHz
    Frame rate : 93.750 fps (512 spf)
    Bit depth : 16 bits
    Compression mode : Lossless/Lossy
    Delay relative to video : 21ms
    Stream size : 1.98 GiB (6%)
    Title : DUB CENTRAL PARTNERSHIP
    Language : Russian
    Default : Yes
    Forced : No
    Audio #2
    ID : 3
    Format : AC-3
    Format/Info : Audio Coding 3
    Mode extension : CM (complete main)
    Format settings, Endianness : Big
    Codec ID : A_AC3
    Duration : 2h 7mn
    Bit rate mode : Constant
    Bit rate : 640 Kbps
    Channel(s) : 6 channels
    Channel positions : Front: L C R, Side: L R, LFE
    Sampling rate : 48.0 KHz
    Frame rate : 31.250 fps (1536 spf)
    Compression mode : Lossy
    Stream size : 582 MiB (2%)
    Title : DUB-AC3 CENTRAL PARTNERSHIP
    Language : Russian
    Default : No
    Forced : No
    Audio #3
    ID : 4
    Format : AC-3
    Format/Info : Audio Coding 3
    Mode extension : CM (complete main)
    Format settings, Endianness : Big
    Codec ID : A_AC3
    Duration : 2h 7mn
    Bit rate mode : Constant
    Bit rate : 640 Kbps
    Channel(s) : 6 channels
    Channel positions : Front: L C R, Side: L R, LFE
    Sampling rate : 48.0 KHz
    Frame rate : 31.250 fps (1536 spf)
    Compression mode : Lossy
    Stream size : 582 MiB (2%)
    Title : AVO A.MATVEEV
    Language : Russian
    Default : No
    Forced : No
    Audio #4
    ID : 5
    Format : DTS
    Format/Info : Digital Theater Systems
    Format profile : X/MA/Core
    Mode : 16
    Format settings, Endianness : Big
    Codec ID : A_DTS
    Duration : 2h 7mn
    Bit rate mode : Variable/Variable/Constant
    Bit rate : 4 735 Kbps/4 735 Kbps/1 509 Kbps
    Channel(s) : Object Based/8 channels/6 channels
    Channel positions : Object Based/Front: L C R, Side: L R, Back: L R, LFE/Front: L C R, Side: L R, LFE
    Sampling rate : /48.0 KHz/48.0 KHz
    Frame rate : 93.750 fps (512 spf)
    Bit depth : /24 bits/24 bits
    Compression mode : /Lossless/Lossy
    Stream size : 4.20 GiB (13%)
    Title : Original
    Language : English
    Default : No
    Forced : No
    Text #1
    ID : 6
    Format : UTF-8
    Codec ID : S_TEXT/UTF8
    Codec ID/Info : UTF-8 Plain Text
    Duration : 1h 55mn
    Bit rate : 75 bps
    Count of elements : 1064
    Stream size : 64.1 KiB (0%)
    Title : FULL
    Language : Russian
    Default : No
    Forced : No
    Text #2
    ID : 7
    Format : UTF-8
    Codec ID : S_TEXT/UTF8
    Codec ID/Info : UTF-8 Plain Text
    Duration : 1h 56mn
    Bit rate : 78 bps
    Count of elements : 980
    Stream size : 66.8 KiB (0%)
    Title : A.MATVEEV
    Language : Russian
    Default : No
    Forced : No
    Text #3
    ID : 8
    Format : UTF-8
    Codec ID : S_TEXT/UTF8
    Codec ID/Info : UTF-8 Plain Text
    Duration : 1h 55mn
    Bit rate : 47 bps
    Count of elements : 1227
    Stream size : 39.8 KiB (0%)
    Title : FULL
    Language : English
    Default : No
    Forced : No
    Text #4
    ID : 9
    Format : UTF-8
    Codec ID : S_TEXT/UTF8
    Codec ID/Info : UTF-8 Plain Text
    Duration : 1h 55mn
    Bit rate : 52 bps
    Count of elements : 1493
    Stream size : 44.4 KiB (0%)
    Title : SDH
    Language : English
    Default : No
    Forced : No
    Text #5
    ID : 10
    Format : UTF-8
    Codec ID : S_TEXT/UTF8
    Codec ID/Info : UTF-8 Plain Text
    Duration : 1h 57mn
    Bit rate : 64 bps
    Count of elements : 1488
    Stream size : 55.4 KiB (0%)
    Title : SDH-Colored
    Language : English
    Default : No
    Forced : No
    Menu
    00: 00: 00.000 : en: Chapter 01
    00: 07: 08.011 : en: Chapter 02
    00: 18: 07.545 : en: Chapter 03
    00: 23: 47.259 : en: Chapter 04
    00: 30: 11.810 : en: Chapter 05
    00: 39: 16.521 : en: Chapter 06
    00: 46: 30.621 : en: Chapter 07
    00: 54: 46.074 : en: Chapter 08
    01: 01: 14.129 : en: Chapter 09
    01: 09: 29.040 : en: Chapter 10
    01: 18: 03.345 : en: Chapter 11
    01: 28: 18.251 : en: Chapter 12
    01: 36: 12.058 : en: Chapter 13
    01: 39: 14.657 : en: Chapter 14
    01: 46: 58.328 : en: Chapter 15
    01: 52: 11.016 : en: Chapter 16
    Скриншоты


    Онлайн видео Боги Египта


    Размер скачиваемого торрента: 32.76 GB (35181020573 Bytes)

    Боги Египта/Gods of Egypt (2016) BDRemux 1080p от ExKinoRay | D, A | Лицензия
    загрузка...
    Рейтинг →
     (голосов: 1, оценка 3/5, голосовать можно 1 раз )

    Другие торренты по теме:



      Комментарии (0):

      Информация

      Информация

        Посетители, находящиеся в группе Гости, не могут оставлять комментарии в данной новости.

        ↓ Меню



        ↓ Опрос

        А Вы добавили сайт в закладки?
        Да
        Не


        Top 10 за неделю (Фильмы)