.
Авторизация | Регистрация
Хочешь лучшие торренты? Добавь свой email!
Добавить
» » Падение Лондона / London Has Fallen (2016) BDRemux 1080p от ExKinoRay | iTunes торрент скачать бесплатно




    Падение Лондона / London Has Fallen (2016) BDRemux 1080p от ExKinoRay | iTunes торрент скачать бесплатно

    Опубликовал: Админ | Дата: 4-06-2016, 15:47 | Просмотров: 98



    Детально о кино
    Русское название: Падение Лондона
    Русское название в мировом прокате: London Has Fallen
    Создали в: 2016
    Категория жанра: Боевик, триллер, криминал
    Главный режиссер: Бабак Наджафи

    Актеры
    Джерард Батлер, Аарон Экхарт, Морган Фримен, Алон Абутбул, Валид Зуэйтер, Адель Беншериф, Мехди Дехби, Шивани Гаи, Мартин Петрушев, Оуэн Дэвис, Майкл Уилдман, Рада Митчелл, Стэйси Шэйн, Пенни Дауни, Кларксон Гай Уильямс, Патрик Кеннеди, Колин Сэлмон, Анджела Бассетт, Дебора Грант, Эндрю Плевин

    Сюжет фильма

    При загадочных обстоятельствах убит британский премьер-министр. На его похороны съезжаются лидеры крупнейших держав мира. Несмотря на запредельные меры безопасности, неизвестные террористы успешно взрывают приглашенных руководителей государств одного за другим вместе с половиной исторического центра Лондона. Однако, для президента США и его личного телохранителя все только начинается...

    Снималось в: США, Великобритания, Болгария
    Киностудия: Gerard Butler Alan Siegel Entertainment, LHF Film, Millennium Films
    Время просмотра: 01: 38: 42
    Перевод текста: Дублированный | iTunes
    Файл
    Кодек для видео: MPEG-4
    Качество фильма: BDRemux 1080p
    Информация о видео: 1920x1080, 33.1 Mbit/s, 23.976 fps
    Информация о звуке:
    Информация о звуке #01: 48 kHz, AC3, 5.1, 384 Kbps | Дублированный, iTunes | AC3|
    Информация о звуке #02: 48 kHz, DTS: X MA, 5.1, 4390 kbps | Оригинал | DTS: X MA|
    Субтитры: Английские
    Релиз подготовил: Автор релиза:

    MI
    General
    Unique ID : 239900705299520133414987304144285718688 (0xB47B31F8BB586FBF88D9253D0243D8A0)
    Complete name : F: VideoLondon.Has.Fallen.2016.BDREMUX.1080p.ExKinoRay.mkv
    Format : Matroska
    Format version : Version 4/Version 2
    File size : 26.3 GiB
    Duration : 1h 38mn
    Overall bit rate mode : Variable
    Overall bit rate : 38.1 Mbps
    Movie name : London.Has.Fallen.2016.BDREMUX.1080p.ExKinoRay
    Encoded date : UTC 2016-06-03 08: 45: 37
    Writing application : mkvmerge v8.3.0 (;Over the Horizon;) 64bit
    Writing library : libebml v1.3.1 + libmatroska v1.4.2
    Video
    ID : 1
    Format : AVC
    Format/Info : Advanced Video Codec
    Format profile : High@L4.1
    Format settings, CABAC : Yes
    Format settings, ReFrames : 4 frames
    Codec ID : V_MPEG4/ISO/AVC
    Duration : 1h 38mn
    Bit rate mode : Variable
    Bit rate : 33.1 Mbps
    Maximum bit rate : 35.0 Mbps
    Width : 1 920 pixels
    Height : 1 080 pixels
    Display aspect ratio : 16: 9
    Frame rate mode : Constant
    Frame rate : 23.976 (24000/1001) fps
    Color space : YUV
    Chroma subsampling : 4: 2: 0
    Bit depth : 8 bits
    Scan type : Progressive
    Bits/(Pixel*Frame) : 0.667
    Stream size : 22.9 GiB (87%)
    Title : London.Has.Fallen.2016.BDREMUX.1080p.ExKinoRay.***селезень***
    Language : English
    Default : Yes
    Forced : No
    Audio #1
    ID : 2
    Format : AC-3
    Format/Info : Audio Coding 3
    Mode extension : CM (complete main)
    Format settings, Endianness : Big
    Codec ID : A_AC3
    Duration : 1h 38mn
    Bit rate mode : Constant
    Bit rate : 384 Kbps
    Channel(s) : 6 channels
    Channel positions : Front: L C R, Side: L R, LFE
    Sampling rate : 48.0 KHz
    Frame rate : 31.250 fps (1536 spf)
    Compression mode : Lossy
    Stream size : 271 MiB (1%)
    Title : DUB iTunes
    Language : Russian
    Default : Yes
    Forced : No
    Audio #2
    ID : 3
    Format : DTS
    Format/Info : Digital Theater Systems
    Format profile : X/MA/Core
    Mode : 16
    Format settings, Endianness : Big
    Codec ID : A_DTS
    Duration : 1h 38mn
    Bit rate mode : Variable/Variable/Constant
    Bit rate : 4 590 Kbps/4 590 Kbps/1 509 Kbps
    Channel(s) : Object Based/8 channels/6 channels
    Channel positions : Object Based/Front: L C R, Side: L R, Back: L R, LFE/Front: L C R, Side: L R, LFE
    Sampling rate : /48.0 KHz/48.0 KHz
    Frame rate : 93.750 fps (512 spf)
    Bit depth : /24 bits/24 bits
    Compression mode : /Lossless/Lossy
    Stream size : 3.16 GiB (12%)
    Title : Original
    Language : English
    Default : No
    Forced : No
    Text #1
    ID : 4
    Format : UTF-8
    Codec ID : S_TEXT/UTF8
    Codec ID/Info : UTF-8 Plain Text
    Duration : 1h 31mn
    Bit rate : 47 bps
    Count of elements : 1029
    Stream size : 31.9 KiB (0%)
    Language : English
    Default : No
    Forced : No
    Text #2
    ID : 5
    Format : UTF-8
    Codec ID : S_TEXT/UTF8
    Codec ID/Info : UTF-8 Plain Text
    Duration : 1h 31mn
    Bit rate : 52 bps
    Count of elements : 1187
    Stream size : 35.2 KiB (0%)
    Title : SDH
    Language : English
    Default : No
    Forced : No
    Menu
    00: 00: 00.000 : en: 00: 00: 00.000
    00: 05: 23.281 : en: 00: 05: 23.281
    00: 10: 12.987 : en: 00: 10: 12.987
    00: 15: 53.202 : en: 00: 15: 53.202
    00: 20: 13.546 : en: 00: 20: 13.546
    00: 23: 41.462 : en: 00: 23: 41.462
    00: 28: 51.229 : en: 00: 28: 51.229
    00: 33: 30.383 : en: 00: 33: 30.383
    00: 39: 37.208 : en: 00: 39: 37.208
    00: 45: 05.286 : en: 00: 45: 05.286
    00: 49: 43.105 : en: 00: 49: 43.105
    00: 53: 26.954 : en: 00: 53: 26.954
    00: 58: 40.392 : en: 00: 58: 40.392
    01: 02: 42.467 : en: 01: 02: 42.467
    01: 08: 22.598 : en: 01: 08: 22.598
    01: 12: 51.075 : en: 01: 12: 51.075
    01: 17: 35.401 : en: 01: 17: 35.401
    01: 20: 58.270 : en: 01: 20: 58.270
    01: 26: 11.500 : en: 01: 26: 11.500
    01: 31: 42.247 : en: 01: 31: 42.247
    Скриншоты


    Онлайн видео Падение Лондона


    Размер скачиваемого торрента: 26.28 GB (28220569244 Bytes)

    Падение Лондона/London Has Fallen (2016) BDRemux 1080p от ExKinoRay | iTunes
    загрузка...
    Рейтинг →
     (голосов: 1, оценка 3/5, голосовать можно 1 раз )

    Другие торренты по теме:

  • Падение Лондона (2016)
  • Падение Лондона / London Has Fallen (2016) WEBRip от Twi7ter | Line
  • Падение Лондона / London Has Fallen (2016) WEB-DL 720p | iTunes
  • Падение Лондона / London Has Fallen (2016) WEB-DLRip-AVC от Scarabey | iTunes
  • Падение Лондона / London Has Fallen (2016) WEB-DLRip от KinoHitHD | КПК | iTunes
  • Падение Лондона / London Has Fallen (2016) HDRip от MegaPeer | iTunes
  • Падение Лондона / London Has Fallen (2016) BDRip 1080p | iTunes
  • Падение Лондона / London Has Fallen (2016) BDRip-AVC | iTunes


    • Комментарии (0):

      Информация

      Информация

        Посетители, находящиеся в группе Гости, не могут оставлять комментарии в данной новости.

        ↓ Меню



        ↓ Опрос

        А Вы добавили сайт в закладки?
        Да
        Не


        Top 10 за месяц (Фильмы)