.
Авторизация | Регистрация
» » Флавия, отступница / Flavia, la monaca musulmana (1974) DVD-9 | A скачать торрент бесплатно




    Флавия, отступница / Flavia, la monaca musulmana (1974) DVD-9 | A скачать торрент бесплатно

    Опубликовал: Админ | Дата: 5-06-2016, 05:00 | Просмотров: 72



    Детально о кино
    Русское название: Флавия, отступница
    Русское название в мировом прокате: Flavia, la monaca musulmana
    Создали в: 1974
    Категория жанра: Драма
    Главный режиссер: Джанфранко Мингоцци

    Актеры
    Флоринда Болкан, Мария Казарес, Клаудио Кассинелли, Энтони Хиггинс, Спирос Фокас, Райка Юрий, Джилл Прэтт, Франка Грэй, Лаура Де Марчини

    Сюжет фильма
    Южная Италия. Начало пятнадцатого века. По воле властного отца свободолюбивая Флавия отправлена в монастырь. Женщина остро реагирует на несправедливость и жестокость мужского мира. Она совершает побег из монастыря, но её ловят и наказывают. Тогда она укрепляется в своей ненависти к религии и мужчинам. Флавия примыкает к отряду мусульманских воинов, совершивших налёт на итальянское побережье. Она становится любовницей их военачальника и ведёт его бойцов на штурм своего монастыря, а затем - отцовского поместья.

    Время просмотра:
    Перевод текста: Авторский (Кузнецов)
    Файл
    Кодек для видео: MPEG-2
    Качество фильма: DVD-9
    Информация о видео: MPEG2, NTSC 16: 9 (720x480@853x480) VBR, 23, 976 кадров/сек
    Информация о звуке: Русский, английский, итальянский DD 2.0 (192 Kbps)
    Меню
    DVDInfo

    Title:
    Size: 5.75 Gb ( 6 024 790 KBytes ) - DVD-9
    Enabled regions: 1, 2, 3, 4, 5, 6, 7, 8
    VTS_01 :
    Play Length: 01: 41: 16
    Video: NTSC 16: 9 (720x480) VBR, Auto PanScan
    Audio:
    Russian (Dolby AC3, 2 ch)
    English (Dolby AC3, 2 ch)
    Italiano (Dolby AC3, 2 ch)
    Menu Video:
    NTSC 4: 3 (704x480) VBR
    Menu English Language Unit :
    Root Menu
    MediaInfo

    Общее
    Полное имя : D: ААА2ФЛАВИЯ, ОТСТУПНИЦАVIDEO_TSVTS_01_1.VOB
    Формат : MPEG-PS
    Размер файла : 1000 Мбайт
    Продолжительность : 16 м.
    Режим общего битрейта : Переменный
    Общий поток : 8241 Кбит/сек
    Видео
    Идентификатор : 224 (0xE0)
    Формат : MPEG Video
    Версия формата : Version 2
    Профиль формата : Main@Main
    Параметр BVOP формата : Да
    Параметр матрицы формата : По умолчанию
    Параметр GOP формата : M=3, N=12
    Продолжительность : 16 м.
    Вид битрейта : Переменный
    Битрейт : 7501 Кбит/сек
    Максимальный битрейт : 8440 Кбит/сек
    Ширина : 720 пикселей
    Высота : 480 пикселей
    Соотношение сторон : 16: 9
    Частота кадров : 23, 976 кадра/сек
    Стандарт вещания : NTSC
    Цветовое пространство : YUV
    Субдискретизация насыщенности : 4: 2: 0
    Битовая глубина : 8 бит
    Тип развёртки : Прогрессивная
    Порядок развёртки : 2: 3 Pulldown
    Метод сжатия : С потерями
    Бит/(Пиксели*Кадры) : 0.905
    TimeCode_FirstFrame : 00: 00: 00;00
    TimeCode_Source : Group of pictures t_head
    Размер потока : 910 Мбайт (91%)
    Аудио #1
    Идентификатор : 189 (0xBD)-128 (0x80)
    Формат : AC-3
    Формат/Информация : Audio Coding 3
    Расширение режима : CM (complete main)
    Параметр Endianness формата : Big
    Режим смешивания : DVD-Video
    Продолжительность : 16 м.
    Вид битрейта : Постоянный
    Битрейт : 192 Кбит/сек
    Каналы : 2 канала
    Расположение каналов : Front: L R
    Частота : 48, 0 КГц
    Битовая глубина : 16 бит
    Метод сжатия : С потерями
    Размер потока : 23, 3 Мбайт (2%)
    Аудио #2
    Идентификатор : 189 (0xBD)-129 (0x81)
    Формат : AC-3
    Формат/Информация : Audio Coding 3
    Расширение режима : CM (complete main)
    Параметр Endianness формата : Big
    Режим смешивания : DVD-Video
    Продолжительность : 16 м.
    Вид битрейта : Постоянный
    Битрейт : 192 Кбит/сек
    Каналы : 2 канала
    Расположение каналов : Front: L R
    Частота : 48, 0 КГц
    Битовая глубина : 16 бит
    Метод сжатия : С потерями
    Размер потока : 23, 3 Мбайт (2%)
    Аудио #3
    Идентификатор : 189 (0xBD)-130 (0x82)
    Формат : AC-3
    Формат/Информация : Audio Coding 3
    Расширение режима : CM (complete main)
    Параметр Endianness формата : Big
    Режим смешивания : DVD-Video
    Продолжительность : 16 м.
    Вид битрейта : Постоянный
    Битрейт : 192 Кбит/сек
    Каналы : 2 канала
    Расположение каналов : Front: L R
    Частота : 48, 0 КГц
    Битовая глубина : 16 бит
    Метод сжатия : С потерями
    Размер потока : 23, 3 Мбайт (2%)
    Меню


    Скриншоты



    Релиз:
    Залил: YArl

    Онлайн видео Флавия, отступница


    Размер скачиваемого торрента: 5.75 GB (6169384960 Bytes)

    Флавия, отступница/Flavia, la monaca musulmana (1974) DVD-9 | A
    загрузка...
    Рейтинг →
     (голосов: 1, оценка 4/5, голосовать можно 1 раз )

    Другие торренты по теме:

  • Флавия, отступница / Flavia, la monaca musulmana (1974) BDRip 720p от Koenig | L1, A скачать торрент бесплатно


    • Комментарии (0):

      Информация

      Информация

        Посетители, находящиеся в группе Гости, не могут оставлять комментарии в данной новости.

        ↓ Меню



        ↓ Опрос

        А Вы добавили сайт в закладки?
        Да
        Не


        Top 10 за неделю (Фильмы)