.
Авторизация | Регистрация
» » По ту сторону двери / The Other Side of the Door (2016) BDRip 720p от ExKinoRay | iTunes скачать торрент бесплатно




    По ту сторону двери / The Other Side of the Door (2016) BDRip 720p от ExKinoRay | iTunes скачать торрент бесплатно

    Опубликовал: Админ | Дата: 8-06-2016, 05:00 | Просмотров: 75



    Детально о кино
    Русское название: По ту сторону двери
    Русское название в мировом прокате: The Other Side of the Door
    Создали в: 2016
    Категория жанра: Ужасы
    Главный режиссер: Йоханнес Робертс

    Актеры
    Сара Уэйн Кэллис, Джереми Систо, София Росински, Хавьер Ботет, Джакс Малкольм, Сучитра Пиллай-Малик

    Сюжет фильма

    Идиллическая жизнь молодой семьи за границей трагически прерывается гибелью маленького сына. Безутешная мать узнает о существовании древнего ритуала, который позволяет на время вернуть умерших, чтобы с ними попрощаться. Девушка отправляется в заброшенный храм, где двери служат порталом между мирами живых и мертвых, но пренебрегает предупреждением не открывать эти таинственные врата. И теперь никто не знает, что станет с нашим миром после нарушения баланса жизни и смерти.

    Снималось в: Индия, Великобритания
    Киностудия: 20th Century Fox, 42 , Kriti Productions
    Время просмотра: 01: 35: 41
    Перевод текста: Дублированный | iTunes
    Файл
    Кодек для видео: MPEG-4
    Качество фильма: BDRip 720p
    Информация о видео: 1280x536, 6214 Кbit/s, 23.976 fps
    Информация о звуке:
    Информация о звуке #01: 48 kHz, AC3, 5.1, 384 Kbps | Дублированный, iTunes | AC3
    Информация о звуке #02: 48 kHz, DTS, 5.1, 1510 kbps | Оригинал | DTS
    Субтитры: Русские, английские
    Релиз подготовил: Автор релиза:

    MI
    General
    Unique ID : 203354983188051549760644272000237305567 (0x98FCBEC1E7232023B0368CB911DFFEDF)
    Complete name : F: VideoThe.Other.Side.of.the.Door.2016.BDRip.720p.ExKinoRay.mkv
    Format : Matroska
    Format version : Version 4/Version 2
    File size : 5.42 GiB
    Duration : 1h 35mn
    Overall bit rate : 8 110 Kbps
    Movie name : The.Other.Side.of.the.Door.2016.BDRip.720p.ExKinoRay
    Encoded date : UTC 2016-06-07 17: 12: 23
    Writing application : mkvmerge v8.3.0 (;Over the Horizon;) 64bit
    Writing library : libebml v1.3.1 + libmatroska v1.4.2
    Video
    ID : 1
    Format : AVC
    Format/Info : Advanced Video Codec
    Format profile : High@L4.1
    Format settings, CABAC : Yes
    Format settings, ReFrames : 9 frames
    Codec ID : V_MPEG4/ISO/AVC
    Duration : 1h 35mn
    Bit rate : 6 214 Kbps
    Width : 1 280 pixels
    Height : 536 pixels
    Display aspect ratio : 2.40: 1
    Frame rate mode : Constant
    Frame rate : 23.976 (24000/1001) fps
    Color space : YUV
    Chroma subsampling : 4: 2: 0
    Bit depth : 8 bits
    Scan type : Progressive
    Bits/(Pixel*Frame) : 0.378
    Stream size : 4.15 GiB (77%)
    Title : The.Other.Side.of.the.Door.2016.BDRip.720p.ExKinoRay.***селезень***
    Writing library : x264 core 148 r2692kMod 64f4e24
    Encoding settings : cabac=1/ref=9/deblock=1: -3: -3/analyse=0x3: 0x133/me=umh/subme=10/psy=1/fade_compensate=0.00/psy_rd=0.80: 0.00/mixed_ref=1/me_range=32/chroma_me=1/trellis=2/8x8dct=1/cqm=0/deadzone=21, 11/fast_pskip=1/chroma_qp_offset=-2/threads=6/lookahead_threads=1/sliced_threads=0/nr=0/decimate=1/interlaced=0/bluray_compat=0/constrained_intra=0/fgo=0/bframes=9/b_pyramid=2/b_adapt=2/b_bias=0/direct=3/weightb=1/open_gop=0/weightp=2/keyint=250/keyint_min=23/scenecut=40/intra_refresh=0/rc=crf/mbtree=0/crf=15.6000/qcomp=0.61/qpmin=0/qpmax=69/qpstep=4/ip_ratio=1.28/pb_ratio=1.20/aq=3: 0.72
    Language : English
    Default : Yes
    Forced : No
    Audio #1
    ID : 2
    Format : AC-3
    Format/Info : Audio Coding 3
    Mode extension : CM (complete main)
    Format settings, Endianness : Big
    Codec ID : A_AC3
    Duration : 1h 35mn
    Bit rate mode : Constant
    Bit rate : 384 Kbps
    Channel(s) : 6 channels
    Channel positions : Front: L C R, Side: L R, LFE
    Sampling rate : 48.0 KHz
    Frame rate : 31.250 fps (1536 spf)
    Compression mode : Lossy
    Stream size : 263 MiB (5%)
    Title : DUB iTunes
    Language : Russian
    Default : Yes
    Forced : No
    Audio #2
    ID : 3
    Format : DTS
    Format/Info : Digital Theater Systems
    Mode : 16
    Format settings, Endianness : Big
    Codec ID : A_DTS
    Duration : 1h 35mn
    Bit rate mode : Constant
    Bit rate : 1 509 Kbps
    Channel(s) : 6 channels
    Channel positions : Front: L C R, Side: L R, LFE
    Sampling rate : 48.0 KHz
    Frame rate : 93.750 fps (512 spf)
    Bit depth : 24 bits
    Compression mode : Lossy
    Stream size : 1.01 GiB (19%)
    Title : Original
    Language : English
    Default : No
    Forced : No
    Text #1
    ID : 4
    Format : UTF-8
    Codec ID : S_TEXT/UTF8
    Codec ID/Info : UTF-8 Plain Text
    Duration : 1h 30mn
    Bit rate : 43 bps
    Count of elements : 733
    Stream size : 28.8 KiB (0%)
    Title : Full
    Language : Russian
    Default : No
    Forced : No
    Text #2
    ID : 5
    Format : UTF-8
    Codec ID : S_TEXT/UTF8
    Codec ID/Info : UTF-8 Plain Text
    Duration : 1h 30mn
    Bit rate : 26 bps
    Count of elements : 724
    Stream size : 17.6 KiB (0%)
    Title : Full
    Language : English
    Default : No
    Forced : No
    Text #3
    ID : 6
    Format : UTF-8
    Codec ID : S_TEXT/UTF8
    Codec ID/Info : UTF-8 Plain Text
    Duration : 1h 30mn
    Bit rate : 32 bps
    Count of elements : 907
    Stream size : 21.4 KiB (0%)
    Title : SDH
    Language : English
    Default : No
    Forced : No
    Menu #1
    00: 00: 00.000 : en: 00: 00: 00.000
    00: 04: 06.872 : en: 00: 04: 06.872
    00: 09: 23.271 : en: 00: 09: 23.271
    00: 11: 45.705 : en: 00: 11: 45.705
    00: 14: 41.089 : en: 00: 14: 41.089
    00: 18: 52.423 : en: 00: 18: 52.423
    00: 22: 56.834 : en: 00: 22: 56.834
    00: 24: 35.432 : en: 00: 24: 35.432
    00: 27: 46.832 : en: 00: 27: 46.832
    00: 32: 29.739 : en: 00: 32: 29.739
    00: 36: 01.326 : en: 00: 36: 01.326
    00: 40: 49.739 : en: 00: 40: 49.739
    00: 45: 00.615 : en: 00: 45: 00.615
    00: 49: 00.980 : en: 00: 49: 00.980
    00: 54: 37.107 : en: 00: 54: 37.107
    00: 59: 41.578 : en: 00: 59: 41.578
    01: 04: 47.884 : en: 01: 04: 47.884
    01: 07: 49.565 : en: 01: 07: 49.565
    01: 12: 16.290 : en: 01: 12: 16.290
    01: 17: 07.832 : en: 01: 17: 07.832
    01: 22: 19.935 : en: 01: 22: 19.935
    01: 25: 11.606 : en: 01: 25: 11.606
    01: 29: 05.340 : en: 01: 29: 05.340
    01: 31: 18.098 : en: 01: 31: 18.098
    Menu #2
    00: 00: 00.054 : en: 00: 00: 00.054
    Скриншоты


    Онлайн видео По ту сторону двери


    Размер скачиваемого торрента: 5.42 GB (5819919419 Bytes)

    По ту сторону двери/The Other Side of the Door (2016) BDRip 720p от ExKinoRay | iTunes
    загрузка...
    Рейтинг →
     (голосов: 1, оценка 5/5, голосовать можно 1 раз )

    Другие торренты по теме:

  • По ту сторону двери / The Other Side of the Door (2016) WEB-DLRip от MegaPeer | iTunes скачать торрент бесплатно
  • По ту сторону двери / The Other Side of the Door (2016) WEB-DL 720p | iTunes скачать торрент бесплатно
  • По ту сторону двери / The Other Side of the Door (2015) BDRip 720p | iTunes скачать торрент бесплатно
  • По ту сторону двери / The Other Side of the Door (2015) скачать торрент бесплатно
  • По ту сторону двери / The Other Side of the Door (2016) BDRip-AVC | iTunes скачать торрент бесплатно


    • Комментарии (0):

      Информация

      Информация

        Посетители, находящиеся в группе Гости, не могут оставлять комментарии в данной новости.

        ↓ Меню



        ↓ Опрос

        А Вы добавили сайт в закладки?
        Да
        Не


        Top 10 за неделю (Фильмы)