.
Авторизация | Регистрация
Хочешь лучшие торренты? Добавь свой email!
Добавить
» » В активном поиске / How to Be Single (2016) BDRip 1080p от ExKinoRay | Лицензия торрент скачать бесплатно




    В активном поиске / How to Be Single (2016) BDRip 1080p от ExKinoRay | Лицензия торрент скачать бесплатно

    Опубликовал: Админ | Дата: 9-06-2016, 12:09 | Просмотров: 69



    Детально о кино
    Русское название: В активном поиске
    Русское название в мировом прокате: How to Be Single
    Создали в: 2016
    Категория жанра: Комедия, мелодрама
    Главный режиссер: Кристиан Диттер

    Актеры
    Дакота Джонсон, Ребел Уилсон, Элисон Бри, Лесли Манн, Николас Браун, Джейсон Манцукас, Дэймон Уайанс мл., Колин Жост, Джейк Лэси, Андерс Холм, Сара Рамос, Ник Бейтман, Мики Гуч мл., Ванесса Рубио, Зани Джонс Мбаис, Брент Морин, Кэй Кэннон, Джудит Лайтфут Кларк, Патрик Болл, Анна Эйлинсфелд

    Сюжет фильма

    Устав от жизни со своим бойфрендом, Элис уходит от него, переезжает к старшей сестре Мэг, находит новую работу и обзаводится новой подругой Робин. Последняя оказывается страстной поклонницей ночных отжигов и пытается втянуть Элис в свою безумную жизнь, хотя та предпочитает чинные и продолжительные отношения пьяным знакомствам на вечеринках.

    Снималось в: США
    Киностудия: Flower Films (II), New Line Cinema, Rickard Pictures
    Время просмотра: 01: 49: 51
    Перевод текста: Дублированный | Лицензия Blu-Ray CEE
    Файл
    Кодек для видео: MPEG-4
    Качество фильма: BDRip 1080p
    Информация о видео: 1920x800, 13.1 Мbit/s, 23.976 fps
    Информация о звуке:
    Информация о звуке #01: 48 kHz, AC3, 5.1, 640 Kbps | Дублированный, Лицензия Blu-Ray CEE |
    Информация о звуке #02: 48 kHz, DTS, 5.1, 1510 kbps | Оригинал |
    Субтитры: Русские (forced, full), английские
    Релиз подготовил: Автор релиза:

    MI
    General
    Unique ID : 171171653480231272746031935035418056932 (0x80C6761833944BADBB07C903B46398E4)
    Complete name : F: VideohowHow.to.Be.Single.2016.BDRip.1080p.ExKinoRay.mkv
    Format : Matroska
    Format version : Version 4/Version 2
    File size : 11.7 GiB
    Duration : 1h 49mn
    Overall bit rate : 15.2 Mbps
    Movie name : How.to.Be.Single.2016.BDRip.1080p.ExKinoRay
    Encoded date : UTC 2016-06-08 00: 49: 45
    Writing application : mkvmerge v8.3.0 (;Over the Horizon;) 64bit
    Writing library : libebml v1.3.1 + libmatroska v1.4.2
    Video
    ID : 1
    Format : AVC
    Format/Info : Advanced Video Codec
    Format profile : High@L4.1
    Format settings, CABAC : Yes
    Format settings, ReFrames : 5 frames
    Codec ID : V_MPEG4/ISO/AVC
    Duration : 1h 49mn
    Bit rate : 13.1 Mbps
    Width : 1 920 pixels
    Height : 800 pixels
    Display aspect ratio : 2.40: 1
    Frame rate mode : Constant
    Frame rate : 23.976 (24000/1001) fps
    Color space : YUV
    Chroma subsampling : 4: 2: 0
    Bit depth : 8 bits
    Scan type : Progressive
    Bits/(Pixel*Frame) : 0.355
    Stream size : 10.0 GiB (86%)
    Title : How.to.Be.Single.2016.BDRip.1080p.ExKinoRay.***селезень***
    Writing library : x264 core 146 r2538 121396c
    Encoding settings : cabac=1/ref=5/deblock=1: -3: -3/analyse=0x3: 0x133/me=tesa/subme=11/psy=1/psy_rd=1.04: 0.00/mixed_ref=1/me_range=32/chroma_me=1/trellis=2/8x8dct=1/cqm=0/deadzone=21, 11/fast_pskip=0/chroma_qp_offset=-2/threads=48/lookahead_threads=6/sliced_threads=0/nr=0/decimate=0/interlaced=0/bluray_compat=0/constrained_intra=0/bframes=11/b_pyramid=2/b_adapt=2/b_bias=0/direct=3/weightb=1/open_gop=0/weightp=2/keyint=240/keyint_min=23/scenecut=40/intra_refresh=0/rc_lookahead=150/rc=crf/mbtree=0/crf=17.7/qcomp=0.60/qpmin=0/qpmax=69/qpstep=4/vbv_maxrate=62500/vbv_bufsize=78125/crf_max=0.0/nal_hrd=none/filler=0/ip_ratio=1.40/pb_ratio=1.30/aq=1: 0.80
    Language : English
    Default : Yes
    Forced : No
    Audio #1
    ID : 2
    Format : AC-3
    Format/Info : Audio Coding 3
    Mode extension : CM (complete main)
    Format settings, Endianness : Big
    Codec ID : A_AC3
    Duration : 1h 49mn
    Bit rate mode : Constant
    Bit rate : 640 Kbps
    Channel(s) : 6 channels
    Channel positions : Front: L C R, Side: L R, LFE
    Sampling rate : 48.0 KHz
    Frame rate : 31.250 fps (1536 spf)
    Compression mode : Lossy
    Stream size : 503 MiB (4%)
    Title : DUB License Blu-Ray CEE
    Language : Russian
    Default : Yes
    Forced : No
    Audio #2
    ID : 3
    Format : DTS
    Format/Info : Digital Theater Systems
    Mode : 16
    Format settings, Endianness : Big
    Codec ID : A_DTS
    Duration : 1h 49mn
    Bit rate mode : Constant
    Bit rate : 1 509 Kbps
    Channel(s) : 6 channels
    Channel positions : Front: L C R, Side: L R, LFE
    Sampling rate : 48.0 KHz
    Frame rate : 93.750 fps (512 spf)
    Bit depth : 24 bits
    Compression mode : Lossy
    Stream size : 1.16 GiB (10%)
    Title : Original
    Language : English
    Default : No
    Forced : No
    Text #1
    ID : 4
    Format : UTF-8
    Codec ID : S_TEXT/UTF8
    Codec ID/Info : UTF-8 Plain Text
    Duration : 1h 43mn
    Bit rate : 3 bps
    Count of elements : 78
    Stream size : 2.75 KiB (0%)
    Title : Forced iTunes
    Language : Russian
    Default : Yes
    Forced : No
    Text #2
    ID : 5
    Format : UTF-8
    Codec ID : S_TEXT/UTF8
    Codec ID/Info : UTF-8 Plain Text
    Duration : 1h 43mn
    Bit rate : 125 bps
    Count of elements : 2033
    Stream size : 95.6 KiB (0%)
    Title : Full iTunes
    Language : Russian
    Default : No
    Forced : No
    Text #3
    ID : 6
    Format : UTF-8
    Codec ID : S_TEXT/UTF8
    Codec ID/Info : UTF-8 Plain Text
    Duration : 1h 43mn
    Bit rate : 89 bps
    Count of elements : 2285
    Stream size : 67.7 KiB (0%)
    Title : Full iTunes
    Language : English
    Default : No
    Forced : No
    Menu
    00: 00: 00.000 : en: 00: 00: 00.000
    00: 10: 18.493 : en: 00: 10: 18.493
    00: 20: 34.775 : en: 00: 20: 34.775
    00: 31: 17.751 : en: 00: 31: 17.751
    00: 41: 28.194 : en: 00: 41: 28.194
    00: 52: 06.832 : en: 00: 52: 06.832
    01: 03: 33.560 : en: 01: 03: 33.560
    01: 16: 21.160 : en: 01: 16: 21.160
    01: 24: 43.036 : en: 01: 24: 43.036
    01: 32: 11.818 : en: 01: 32: 11.818
    01: 43: 26.826 : en: 01: 43: 26.826
    Скриншоты


    Онлайн видео В активном поиске


    Размер скачиваемого торрента: 11.69 GB (12549082144 Bytes)

    В активном поиске/How to Be Single (2016) BDRip 1080p от ExKinoRay | Лицензия
    загрузка...
    Рейтинг →
     (голосов: 1, оценка 5/5, голосовать можно 1 раз )

    Другие торренты по теме:

  • В активном поиске / How to Be Single (2016)
  • В активном поиске / How to Be Single (2016) WEB-DLRip | звук с CAMRip
  • В активном поиске / How to Be Single (2016) BDRemux 1080p от ExKinoRay | Line
  • В активном поиске / How to Be Single (2016) BDRip 1080p от ExKinoRay | Line
  • В активном поиске / How to Be Single (2016) BDRip 720p | iTunes
  • В активном поиске / How to Be Single (2016) BDRip 720p | Лицензия
  • В активном поиске / How to Be Single (2016) BDRip-AVC от New-Team | Лицензия
  • В активном поиске / How to Be Single (2016) BDRip-AVC от New-Team | Лицензия


    • Комментарии (0):

      Информация

      Информация

        Посетители, находящиеся в группе Гости, не могут оставлять комментарии в данной новости.

        ↓ Меню



        ↓ Опрос

        А Вы добавили сайт в закладки?
        Да
        Не


        Top 10 за месяц (Фильмы)