.
Авторизация | Регистрация
Хочешь лучшие торренты? Добавь свой email!
Добавить
» » Четвертая война / The Fourth War (1989) BDRip-AVC | P, A торрент скачать бесплатно




    Четвертая война / The Fourth War (1989) BDRip-AVC | P, A торрент скачать бесплатно

    Опубликовал: Админ | Дата: 10-06-2016, 05:00 | Просмотров: 54



    Создали в: США, Канада
    Категория жанра: Триллер, Драма
    Главный режиссер: Джон Франкенхаймер
    Актеры: Рой Шайдер, Юрген Прохнов, Тим Рейд, Лара Харрис, Гарри Дин Стэнтон, Дейл Дай, Уильям МакДональд, Дэвид Палффи, Нил Гран, Эрни Джексон

    Описание фильма

    1988 год. Германо-чешская граница. На Востоке еще только начинаются перемены. Нейтральной полосой разделены два контингента войск - советские в Чехословакии и американские с немецкой стороны. По разные стороны границы оказываются два ветерана? полковник Кноуз, прошедший Вьетнам, и полковник Валачев, за плечами которого Афганистан.
    Много лет они смотрели друг на друга в прорезь прицела, а теперь встретились, чтобы в поединке один на один предотвратить возможно, третью мировую войну.

    Время просмотра: 01: 30: 54
    Качество фильма видео: BDRip-AVC
    Перевод текста: Профессиональный (многоголосый, закадровый), авторский
    Субтитры: Отсутствуют
    Информация о видео: AVC, 1024x556 (16: 9), 23.976 fps, 3 054 Kbps (0.224 bit/pixel)
    Информация о звуке #1: AC-3, 48.0 KHz, 2 ch, 192 Kbps, CBR (Russian) - Многоголосый закадровый
    Информация о звуке #2: AC-3, 48.0 KHz, 2 ch, 192 Kbps, CBR (Russian) - Многоголосый закадровый, Paramount Channel
    Информация о звуке #3: AC-3, 48.0 KHz, 2 ch, 192 Kbps, CBR (Russian) - Одноголосый закадровый, В.Дохалов
    Информация о звуке #4: AC-3, 48.0 KHz, 2 ch, 192 Kbps, CBR (Russian) - Одноголосый закадровый, П.Карцев
    Информация о звуке #5: AC-3, 48.0 KHz, 2 ch, 192 Kbps, CBR (English) - Оригинал (английский)
    Mediainfo:

    Формат : Matroska
    Версия формата : Version 2
    Размер файла : 2, 54 Гбайт
    Продолжительность : 1 ч. 30 м.
    Общий поток : 4014 Кбит/сек
    Дата кодирования : UTC 2016-06-08 19: 13: 05
    Программа кодирования : mkvmerge v5.3.0 (;I could have danced;) built on Feb 9 2012 10: 38: 07
    Библиотека кодирования : libebml v1.2.3 + libmatroska v1.3.0
    Attachment : Yes
    Видео
    Идентификатор : 1
    Формат : AVC
    Формат/Информация : Advanced Video Codec
    Профиль формата : High@L4.1
    Параметр CABAC формата : Да
    Параметр ReFrames формата : 12 кадров
    Идентификатор кодека : V_MPEG4/ISO/AVC
    Продолжительность : 1 ч. 30 м.
    Битрейт : 3054 Кбит/сек
    Ширина : 1024 пикселя
    Высота : 556 пикселей
    Соотношение сторон : 1, 85: 1
    Режим частоты кадров : Постоянный
    Частота кадров : 23, 976 кадра/сек
    Цветовое пространство : YUV
    Субдискретизация насыщенности : 4: 2: 0
    Битовая глубина : 8 бит
    Тип развёртки : Прогрессивная
    Бит/(Пиксели*Кадры) : 0.224
    Размер потока : 1, 88 Гбайт (74%)
    Библиотека кодирования : x264 core 146 r2538 121396c
    Настройки программы : cabac=1/ref=12/deblock=1: -3: -2/analyse=0x3: 0x133/me=umh/subme=11/psy=1/psy_rd=1.01: 0.00/mixed_ref=1/me_range=32/chroma_me=1/trellis=2/8x8dct=1/cqm=0/deadzone=21, 11/fast_pskip=0/chroma_qp_offset=-2/threads=12/lookahead_threads=2/sliced_threads=0/nr=0/decimate=0/interlaced=0/bluray_compat=0/constrained_intra=0/bframes=8/b_pyramid=2/b_adapt=2/b_bias=0/direct=3/weightb=1/open_gop=0/weightp=2/keyint=240/keyint_min=23/scenecut=40/intra_refresh=0/rc_lookahead=40/rc=2pass/mbtree=0/bitrate=3054/ratetol=1.0/qcomp=0.60/qpmin=0/qpmax=69/qpstep=4/cplxblur=20.0/qblur=0.5/vbv_maxrate=50000/vbv_bufsize=62500/nal_hrd=none/filler=0/ip_ratio=1.40/pb_ratio=1.30/aq=2: 0.90
    Default : Да
    Forced : Нет
    Аудио #1
    Идентификатор : 2
    Формат : AC-3
    Формат/Информация : Audio Coding 3
    Расширение режима : CM (complete main)
    Параметр Endianness формата : Big
    Идентификатор кодека : A_AC3
    Продолжительность : 1 ч. 30 м.
    Вид битрейта : Постоянный
    Битрейт : 192 Кбит/сек
    Каналы : 2 канала
    Расположение каналов : Front: L R
    Частота : 48, 0 КГц
    Битовая глубина : 16 бит
    Метод сжатия : С потерями
    Размер потока : 124 Мбайт (5%)
    Заголовок : Многоголосый закадровый
    Язык : Russian
    Default : Да
    Forced : Нет
    Аудио #2
    Идентификатор : 3
    Формат : AC-3
    Формат/Информация : Audio Coding 3
    Расширение режима : CM (complete main)
    Параметр Endianness формата : Big
    Идентификатор кодека : A_AC3
    Продолжительность : 1 ч. 30 м.
    Вид битрейта : Постоянный
    Битрейт : 192 Кбит/сек
    Каналы : 2 канала
    Расположение каналов : Front: L R
    Частота : 48, 0 КГц
    Битовая глубина : 16 бит
    Метод сжатия : С потерями
    Размер потока : 124 Мбайт (5%)
    Заголовок : Многоголосый закадровый, Paramount Channel
    Язык : Russian
    Default : Нет
    Forced : Нет
    Аудио #3
    Идентификатор : 4
    Формат : AC-3
    Формат/Информация : Audio Coding 3
    Расширение режима : CM (complete main)
    Параметр Endianness формата : Big
    Идентификатор кодека : A_AC3
    Продолжительность : 1 ч. 30 м.
    Вид битрейта : Постоянный
    Битрейт : 192 Кбит/сек
    Каналы : 2 канала
    Расположение каналов : Front: L R
    Частота : 48, 0 КГц
    Битовая глубина : 16 бит
    Метод сжатия : С потерями
    Размер потока : 124 Мбайт (5%)
    Заголовок : В.Дохалов
    Язык : Russian
    Default : Нет
    Forced : Нет
    Аудио #4
    Идентификатор : 5
    Формат : AC-3
    Формат/Информация : Audio Coding 3
    Расширение режима : CM (complete main)
    Параметр Endianness формата : Big
    Идентификатор кодека : A_AC3
    Продолжительность : 1 ч. 30 м.
    Вид битрейта : Постоянный
    Битрейт : 192 Кбит/сек
    Каналы : 2 канала
    Расположение каналов : Front: L R
    Частота : 48, 0 КГц
    Битовая глубина : 16 бит
    Метод сжатия : С потерями
    Размер потока : 124 Мбайт (5%)
    Заголовок : П.Карцев
    Язык : Russian
    Default : Нет
    Forced : Нет
    Аудио #5
    Идентификатор : 6
    Формат : AC-3
    Формат/Информация : Audio Coding 3
    Расширение режима : CM (complete main)
    Параметр Endianness формата : Big
    Идентификатор кодека : A_AC3
    Продолжительность : 1 ч. 30 м.
    Вид битрейта : Постоянный
    Битрейт : 192 Кбит/сек
    Каналы : 2 канала
    Расположение каналов : Front: L R
    Частота : 48, 0 КГц
    Битовая глубина : 16 бит
    Метод сжатия : С потерями
    Размер потока : 124 Мбайт (5%)
    Язык : English
    Default : Нет
    Forced : Нет
    Меню
    00: 00: 00.000 : : Chapter 01
    00: 14: 32.413 : : Chapter 02
    00: 24: 08.320 : : Chapter 03
    00: 35: 17.989 : : Chapter 04
    00: 47: 18.335 : : Chapter 05
    00: 54: 17.379 : : Chapter 06
    01: 03: 42.109 : : Chapter 07
    01: 13: 16.140 : : Chapter 08

    Скриншоты:


    Онлайн видео Четвертая война


    Размер скачиваемого торрента: 2.54 GB (2722506959 Bytes)

    Четвертая война/The Fourth War (1989) BDRip-AVC | P, A
    загрузка...
    Рейтинг →
     (голосов: 1, оценка 3/5, голосовать можно 1 раз )

    Другие торренты по теме:



      Комментарии (0):

      Информация

      Информация

        Посетители, находящиеся в группе Гости, не могут оставлять комментарии в данной новости.

        ↓ Меню



        ↓ Опрос

        А Вы добавили сайт в закладки?
        Да
        Не


        Top 10 за месяц (Фильмы)