.
Авторизация | Регистрация
Хочешь лучшие торренты? Добавь свой email!
Добавить
» » ...И зовут тебя Джона / ...And Your Name Is Jonah (1979) WEBRip | Sub торрент скачать бесплатно




    ...И зовут тебя Джона / ...And Your Name Is Jonah (1979) WEBRip | Sub торрент скачать бесплатно

    Опубликовал: Админ | Дата: 10-06-2016, 05:00 | Просмотров: 69



    Детально о кино
    Русское название: ...И зовут тебя Джона
    Русское название в мировом прокате: ...And Your Name Is Jonah
    Создали в: 1979
    Категория жанра: драма
    Главный режиссер: Ричард Майклс

    Актеры
    Сэлли Стразерс, Джеймс Вудс, Рэнди Хеллер, Титос Вандис, Пенни Сантон, Рут Мэннинг, Джеффри Бравин, Роберт Дави, Эрика Йон, Энтони Пондзини, Джереми Лихт

    Сюжет фильма

    Пара, чей сын жил с диагнозом умственно отсталый, была шокирована, узнав, что диагноз был ошибочный, и что их сын глухой, а не умственно отсталый.

    Создали в: США/Charles Fries Productions
    Время просмотра: 01: 34: 59
    Перевод текста: русские субтитры от r123
    Файл
    Качество фильма: WEBRip
    Тип видео: MKV
    Информация о видео: MPEG-4 AVC, 640x480 (4: 3), 29.970 fps, 1221 kbps, 0.133 bit/pixel
    Информация о звуке: английский, AC3 2.0, 44.1 kHz, 128 kbps
    Субтитры: русские, английские вшитые отключаемые
    MediaInfo
    Формат : Matroska
    Версия формата : Version 4/Version 2
    Размер файла : 935 Мбайт
    Продолжительность : 1 ч. 34 м.
    Общий поток : 1376 Кбит/сек
    Дата кодирования : UTC 2016-06-08 15: 01: 28
    Программа кодирования : mkvmerge v7.9.0 (;Birds;) 64bit
    Библиотека кодирования : libebml v1.3.1 + libmatroska v1.4.2
    Видео
    Идентификатор : 1
    Формат : AVC
    Формат/Информация : Advanced Video Codec
    Профиль формата : Baseline@L3
    Параметр CABAC формата : Нет
    Параметр ReFrames формата : 1 кадр
    Параметр GOP формата : M=1, N=25
    Режим смешивания : Container profile=Baseline@4.1
    Идентификатор кодека : V_MPEG4/ISO/AVC
    Продолжительность : 1 ч. 34 м.
    Битрейт : 1221 Кбит/сек
    Ширина : 640 пикселей
    Высота : 480 пикселей
    Соотношение сторон : 4: 3
    Режим частоты кадров : Постоянный
    Частота кадров : 29, 970 кадров/сек
    Частота кадров в оригинале : 29, 000 кадров/сек
    Цветовое пространство : YUV
    Субдискретизация насыщенности : 4: 2: 0
    Битовая глубина : 8 бит
    Тип развёртки : Прогрессивная
    Бит/(Пиксели*Кадры) : 0.133
    Размер потока : 830 Мбайт (89%)
    Язык : English
    Default : Да
    Forced : Нет
    Аудио
    Идентификатор : 2
    Формат : AC-3
    Формат/Информация : Audio Coding 3
    Расширение режима : CM (complete main)
    Параметр Endianness формата : Big
    Идентификатор кодека : A_AC3
    Продолжительность : 1 ч. 34 м.
    Вид битрейта : Постоянный
    Битрейт : 128 Кбит/сек
    Каналы : 2 канала
    Расположение каналов : Front: L R
    Частота : 44, 1 КГц
    Метод сжатия : С потерями
    Размер потока : 87, 0 Мбайт (9%)
    Язык : English
    Default : Да
    Forced : Нет
    Текст #1
    Идентификатор : 3
    Формат : UTF-8
    Идентификатор кодека : S_TEXT/UTF8
    Идентификатор кодека/Информация : UTF-8 Plain Text
    Заголовок : r123
    Язык : Russian
    Default : Да
    Forced : Нет
    Текст #2
    Идентификатор : 4
    Формат : UTF-8
    Идентификатор кодека : S_TEXT/UTF8
    Идентификатор кодека/Информация : UTF-8 Plain Text
    Язык : English
    Default : Нет
    Forced : Нет
    Скриншоты

    Релиз подготовил:
    Залил: makkaronni

    Онлайн видео ...И зовут тебя Джона


    Размер скачиваемого торрента: 935.21 MB (980638146 Bytes)

    ...И зовут тебя Джона/...And Your Name Is Jonah (1979) WEBRip | Sub
    загрузка...
    Рейтинг →
     (голосов: 1, оценка 4/5, голосовать можно 1 раз )

    Другие торренты по теме:

  • Меня зовут Кхан / My Name Is Khan (2010) BDRip 1080p
  • Меня зовут Кхан / My Name Is Khan (2010) HDRip-AVC | D
  • Меня зовут Шмуэль / Koreyim Li Shmil (1973) DVDRip | Sub скачать через торрент бесплатно
  • Меня зовут Троица / Lo chiamavano Trinita (1970) BDRip by msltel | P, P2, A | Полная версия
  • Меня зовут Троица / Lo chiamavano Trinita (1970) Blu-ray Remux 1080p | P, P2, A | Полная версия скачать через торрент бесплатно
  • Меня зовут Троица / Lo chiamavano Trinita (1970) Blu-ray 1080p | P, P2, A | Полная версия скачать через торрент бесплатно
  • Меня зовут Троица / Lo chiamavano Trinita (1970) BDRip 720p | P, P2, A | Полная версия скачать через торрент бесплатно
  • Меня зовут Троица / Lo chiamavano Trinita (1970) BDRip 1080p by msltel | P, P2, A | Полная версия


    • Комментарии (0):

      Информация

      Информация

        Посетители, находящиеся в группе Гости, не могут оставлять комментарии в данной новости.

        ↓ Меню



        ↓ Опрос

        А Вы добавили сайт в закладки?
        Да
        Не


        Top 10 за месяц (Фильмы)