.
Авторизация | Регистрация
Хочешь лучшие торренты? Добавь свой email!
Добавить
» » Стрела / Arrow (2012-2016) WEB-DLRip от Generalfilm | КПК | LostFilm торрент скачать бесплатно




    Стрела / Arrow (2012-2016) WEB-DLRip от Generalfilm | КПК | LostFilm торрент скачать бесплатно

    Опубликовал: Админ | Дата: 10-06-2016, 15:41 | Просмотров: 50



    Детально о кино
    Русское название: Стрела
    Русское название в мировом прокате: Arrow
    Создали в: 2012
    Категория жанра: Фантастика, боевик, драма, криминал, детектив, приключения
    Главный режиссер: Дэвид Баррет, Эгил Эгилссон, Ник Копус

    Актеры
    Стивен Амелл, Кэти Кэссиди, Колин Доннелл, Дэвид Рэмси, Уилла Холлэнд, Сюзанна Томпсон, Пол Блекторн, Колин Сэлмон, Эмили Бетт Рикардс, Энни Айлонзех

    Сюжет фильма

    После пяти лет, проведенных на одном из необитаемых островов юго-восточной Азии, молодой и дерзкий миллиардер Оливер Куин возвращается домой другим человеком. Все это время все считали его погибшим в результате кораблекрушения. Однако, он оказался единственным из членов экипажа затонувшего судна, кому не просто удалось выжить... Внешние или внутренние обстоятельства превратили его в совершенно другого человека, правда, Оливер отчего-то не спешит предъявить себя в новом качестве общественности.

    Снималось в: США
    Киностудия: Warner Bros Television
    Время просмотра: 92 x ~00: 42: 00
    Перевод текста: Профессиональный (многоголосый, закадровый) LostFilm
    Файл
    Тип видео: MP4
    Качество фильма: WEB-DLRip | КПК
    Информация о видео: MPEG-4 AVC (x264), 640x360, ~500 kbps, 23.976 fps
    Информация о звуке: AAC LC, 48.0 KHz, 2 ch, 128 Kbps
    Субтитры: Нет
    Семпл
    Скриншоты

    MI
    Complete name : E: KinoStrela.AVC.WEB-DLRip.KPK.GeneralfilmStrela.S03.2014-2015.AVC.WEB-DLRip.KPK.GeneralfilmStrela.s03e06.2014.AVC.WEB-DLRip.KPK.Generalfilm.mp4
    Format : MPEG-4
    Format profile : Base Media
    Codec ID : isom
    File size : 192 MiB
    Duration : 42mn 31s
    Overall bit rate mode : Variable
    Overall bit rate : 632 Kbps
    Encoded date : UTC 2014-11-19 17: 15: 38
    Tagged date : UTC 2014-11-19 17: 15: 38
    Video
    ID : 1
    Format : AVC
    Format/Info : Advanced Video Codec
    Format profile : High@L4.1
    Format settings, CABAC : Yes
    Format settings, ReFrames : 8 frames
    Codec ID : avc1
    Codec ID/Info : Advanced Video Coding
    Duration : 42mn 31s
    Bit rate : 500 Kbps
    Maximum bit rate : 2 765 Kbps
    Width : 640 pixels
    Height : 360 pixels
    Display aspect ratio : 16: 9
    Frame rate mode : Constant
    Frame rate : 23.976 fps
    Color space : YUV
    Chroma subsampling : 4: 2: 0
    Bit depth : 8 bits
    Scan type : Progressive
    Bits/(Pixel*Frame) : 0.091
    Stream size : 152 MiB (79%)
    Writing library : x264 core 130 r2273 b3065e6
    Encoding settings : cabac=1/ref=8/deblock=1: -1: -1/analyse=0x3: 0x133/me=umh/subme=10/psy=1/psy_rd=1.00: 0.00/mixed_ref=1/me_range=24/chroma_me=1/trellis=2/8x8dct=1/cqm=0/deadzone=21, 11/fast_pskip=1/chroma_qp_offset=-2/threads=12/lookahead_threads=2/sliced_threads=0/nr=0/decimate=1/interlaced=0/bluray_compat=0/constrained_intra=0/bframes=8/b_pyramid=2/b_adapt=2/b_bias=0/direct=3/weightb=1/open_gop=0/weightp=2/keyint=250/keyint_min=126/scenecut=40/intra_refresh=0/rc_lookahead=40/rc=2pass/mbtree=1/bitrate=500/ratetol=1.0/qcomp=0.60/qpmin=0/qpmax=69/qpstep=4/cplxblur=20.0/qblur=0.5/ip_ratio=1.40/aq=1: 1.00
    Encoded date : UTC 2014-11-19 17: 15: 38
    Tagged date : UTC 2014-11-19 17: 15: 42
    Audio
    ID : 2
    Format : AAC
    Format/Info : Advanced Audio Codec
    Format profile : LC
    Codec ID : 40
    Duration : 42mn 31s
    Bit rate mode : Variable
    Bit rate : 128 Kbps
    Maximum bit rate : 244 Kbps
    Channel count : 2 channels
    Channel positions : Front: L R
    Sampling rate : 48.0 KHz
    Compression mode : Lossy
    Delay relative to video : 125ms
    Stream size : 38.9 MiB (20%)
    Encoded date : UTC 2014-11-19 17: 15: 41
    Tagged date : UTC 2014-11-19 17: 15: 42

    Релиз подготовил:
    Залил: toys_watch

    Онлайн видео Стрела


    Размер скачиваемого торрента: 17.21 GB (18483467098 Bytes)

    Стрела/Arrow (2012-2016) WEB-DLRip от Generalfilm | КПК | LostFilm
    загрузка...
    Рейтинг →
     (голосов: 1, оценка 3/5, голосовать можно 1 раз )

    Другие торренты по теме:

  • Стрела / Arrow (2012) WEB-DL 1080p | NewStudio
  • Стрела / Arrow (2013) HDTVRip 720p | Kerob скачать через торрент бесплатно
  • Стрела / Arrow (2013) WEB-DLRip | LostFilm
  • Стрела / Arrow (2013) WEB-DLRip | BaibaKo
  • Стрела / Arrow (2013) WEB-DL 720p | BaibaKo
  • Стрела / Arrow (2013) WEB-DL 1080p | BaibaKo
  • Стрела / Arrow (2013) WEB-DLRip от Youtracker | КПК скачать через торрент бесплатно
  • Стрела / Arrow (2013) WEB-DLRip от Scarabey | LostFilm


    • Комментарии (0):

      Информация

      Информация

        Посетители, находящиеся в группе Гости, не могут оставлять комментарии в данной новости.

        ↓ Меню



        ↓ Опрос

        А Вы добавили сайт в закладки?
        Да
        Не


        Top 10 за месяц (Фильмы)