.
Авторизация | Регистрация
Хочешь лучшие торренты? Добавь свой email!
Добавить
» » Варкрафт / Warcraft (2016) ТС | D | звук с CAMRip торрент скачать бесплатно




    Варкрафт / Warcraft (2016) ТС | D | звук с CAMRip торрент скачать бесплатно

    Опубликовал: Админ | Дата: 10-06-2016, 15:42 | Просмотров: 95



    Варкрафт / Warcraft
    Снималось в: США
    Создали в: Universal Pictures, Legendary Pictures, Blizzard Entertainment, Atlas Entertainment
    Создали в: 2016
    Категория жанра: фэнтези, боевик, приключения
    Время просмотра: 02: 03: 47
    Главный режиссер: Дункан Джонс
    Авторы сценария: Дункан Джонс, Чарльз Ливитт, Крис Метцен

    Актеры
    Трэвис Фиммел, Пола Пэттон, Бен Фостер, Доминик Купер, Тоби Кеббелл, Бен Шнетцер, Роберт Казински, Клэнси Браун
    Описание: Веками магия и неприступные стены защищали людей от любых напастей. Но древнее зло, побежденное и забытое тысячелетия назад, пробудилось. В самом сердце королевства открылся темный портал, и раса невиданных существ наводнила земли Азерота. Так начались события, призванные навсегда изменить судьбу этого мира...

    Перевод текста: Профессиональный (полное дублирование) | звук с CAMRip
    Субтитры: китайские (вшитые)
    Качество фильма: Telecine
    Тип видео: АVI
    Информация о видео кодек: XviD
    Информация о звуке кодек: АС3
    Информация о видео: 720x304 (2.35: 1), 29.970 fps, XviD ~1 387 kbps avg
    Информация о звуке: 48.0 kHz, AC3 Dolby Digital, 2/0 (L, R) ch, ~128 kbps
    Дата премьеры (мир): 19 мая 2016
    Дата премьеры (РФ): 26 мая 2016, UPI

    Media Info
    General
    Название : BaPkPaft.2016.D.TC.1400MB.avi
    Формат : AVI
    Формат/Info : Audio Video Interleave
    Размер файла : 1.37 GiB
    Длительность : 2h 3mn
    Общий Битрейт : 1 587 Kbps
    Movie name : BaPkPaft.2016.D.TC.1400MB
    Создано приложением : VirtualDubMod 1.5.10.2 (build 2540/release)
    Original source form/Name : Movie
    Video
    ID : 0
    Формат : MPEG-4 Visual
    Формат profile : Advanced Simple@L5
    Формат настройки, BVOP : 2
    Формат настройки, QPel : No
    Формат настройки, GMC : No warppoints
    Формат настройки, Matrix : Default (MPEG)
    Кодек ID : XVID
    Кодек ID/Hint : XviD
    Длительность : 2h 3mn
    Битрейт : 1 387 Kbps
    Width : 720 пикселей
    Высота : 304 пикселей
    Соотношение кадра : 2.35: 1
    Частота кадров : 29.970 fps
    Цветопередача : YUV
    Chroma subsampling : 4: 2: 0
    Разрядность : 8 bits
    Тип сканирования : Progressive
    Режим сжатия : Lossy
    Bits/(Pixel*Frame) : 0.211
    Размер потока : 1.20 GiB (87%)
    Writing library : XviD 1.2.1 (UTC 2008-12-04)
    Audio
    ID : 1
    Формат : AC-3
    Формат/Info : Audio Coding 3
    Расширение режима : CM (complete main)
    Кодек ID : 2000
    Длительность : 2h 3mn
    Битрейт mode : Constant
    Битрейт : 128 Kbps
    Channel(s) : 2 канала
    Channel positions : Front: L R
    Частота : 48.0 KHz
    Разрядность : 16 bits
    Режим сжатия : Lossy
    Размер потока : 113 MiB (8%)
    Выравнивание : Split accross interleaves

    Скриншоты

    Залил: Zha-4k-e

    Онлайн видео Варкрафт


    Размер скачиваемого торрента: 1.37 GB (1473187840 Bytes)

    Варкрафт/Warcraft (2016) ТС | D | звук с CAMRip
    загрузка...
    Рейтинг →
     (голосов: 1, оценка 4/5, голосовать можно 1 раз )

    Другие торренты по теме:

  • Варкрафт / Warcraft (2016) WEBRip 1080p | Трейлер#2
  • Варкрафт / Warcraft (2016)
  • Варкрафт / Warcraft (2016) CAMRip | D
  • Варкрафт / Warcraft (2016) CAMRip *Proper* | D
  • Варкрафт / Warcraft (2016) ТС 720р | D | звук с CAMRip
  • Варкрафт / Warcraft (2016) TC 720p | Line
  • Варкрафт / Warcraft (2016) TC 1080p | Line
  • Варкрафт / Warcraft (2016) WEBRip-AVC от Vovan366 | D | Line


    • Комментарии (0):

      Информация

      Информация

        Посетители, находящиеся в группе Гости, не могут оставлять комментарии в данной новости.

        ↓ Меню



        ↓ Опрос

        А Вы добавили сайт в закладки?
        Да
        Не


        Top 10 за месяц (Фильмы)