.
Авторизация | Регистрация
Хочешь лучшие торренты? Добавь свой email!
Добавить
» » Варкрафт / Warcraft (2016) ТС 720р | D | звук с CAMRip торрент скачать бесплатно




    Варкрафт / Warcraft (2016) ТС 720р | D | звук с CAMRip торрент скачать бесплатно

    Опубликовал: Админ | Дата: 10-06-2016, 15:42 | Просмотров: 134



    Варкрафт / Warcraft
    Снималось в: США
    Создали в: Universal Pictures, Legendary Pictures, Blizzard Entertainment, Atlas Entertainment
    Создали в: 2016
    Категория жанра: фэнтези, боевик, приключения
    Время просмотра: 02: 03: 47
    Главный режиссер: Дункан Джонс
    Авторы сценария: Дункан Джонс, Чарльз Ливитт, Крис Метцен

    Актеры
    Трэвис Фиммел, Пола Пэттон, Бен Фостер, Доминик Купер, Тоби Кеббелл, Бен Шнетцер, Роберт Казински, Клэнси Браун
    Описание: Веками магия и неприступные стены защищали людей от любых напастей. Но древнее зло, побежденное и забытое тысячелетия назад, пробудилось. В самом сердце королевства открылся темный портал, и раса невиданных существ наводнила земли Азерота. Так начались события, призванные навсегда изменить судьбу этого мира...

    Перевод текста: Профессиональный (полное дублирование) | звук с CAMRip
    Субтитры: китайские (вшитые)
    Качество фильма: Telecine 720р
    Тип видео: МКV
    Информация о видео кодек: AVC
    Информация о звуке кодек: АС3
    Информация о видео: 1280x526 (2.40: 1), 29.970 fps, MPEG-4 AVC ~3 000 kbps avg
    Информация о звуке №1: 48.0 kHz, AC3 Dolby Digital, 2/0 (L, R) ch, ~192 kbps | RUS
    Информация о звуке №2: 48.0 kHz, AC3 Dolby Digital, 2/0 (L, R) ch, ~192 kbps | ENG
    Дата премьеры (мир): 19 мая 2016
    Дата премьеры (РФ): 26 мая 2016, UPI

    Media Info
    General
    Unique ID : 209379362187512625866883670041033032046 (0x9D84FF930994EF38B30D51E52B55C16E)
    Название : BaPkPaft.2016.D.TC.720P.mkv
    Формат : Matroska
    Формат version : Version 2
    Размер файла : 2.94 GiB
    Длительность : 2h 3mn
    Общий Битрейт : 3 395 Kbps
    Encoded date : UTC 2016-06-08 16: 39: 10
    Создано приложением : mkvmerge v8.3.0 (;Over the Horizon;) 64bit
    Writing library : libebml v1.3.1 + libmatroska v1.4.2
    Длительность : 02: 03: 47.552000000
    NUMBER_OF_FRAMES : 232111
    NUMBER_OF_BYTES : 178261248
    _STATISTICS_WRITING_APP : mkvmerge v8.3.0 (;Over the Horizon;) 64bit
    _STATISTICS_WRITING_DATE_UTC : 2016-06-08 16: 39: 10
    _STATISTICS_TAGS : BPS Длительность NUMBER_OF_FRAMES NUMBER_OF_BYTES
    Video
    ID : 1
    Формат : AVC
    Формат/Info : Advanced Video Кодек
    Формат profile : High@L4.1
    Формат настройки, CABAC : Yes
    Формат настройки, ReFrames : 11 frames
    Кодек ID : V_MPEG4/ISO/AVC
    Длительность : 2h 3mn
    Битрейт : 3 000 Kbps
    Width : 1 280 пикселей
    Высота : 526 пикселей
    Соотношение кадра : 2.40: 1
    Частота кадров : 29.970 fps
    Цветопередача : YUV
    Chroma subsampling : 4: 2: 0
    Разрядность : 8 bits
    Тип сканирования : Progressive
    Bits/(Pixel*Frame) : 0.149
    Размер потока : 2.54 GiB (87%)
    Writing library : x264 core 142 r2431+42 c69a006 tMod 8-bit@all X86_64
    Encoding настройки : cabac=1/ref=11/deblock=1: -2: -2/analyse=0x3: 0x133/me=umh/subme=9/psy=1/fade_compensate=0.00/psy_rd=1.10: 0.00/mixed_ref=1/me_range=24/chroma_me=1/trellis=1/8x8dct=1/cqm=0/deadzone=21, 11/fast_pskip=0/chroma_qp_offset=-2/threads=24/lookahead_threads=2/sliced_threads=0/nr=0/decimate=0/interlaced=0/bluray_compat=0/constrained_intra=0/fgo=0/bframes=6/b_pyramid=2/b_adapt=2/b_bias=0/direct=3/weightb=1/open_gop=0/weightp=2/keyint=250/keyint_min=24/scenecut=40/intra_refresh=0/rc_lookahead=120/rc=abr/mbtree=1/bitrate=3000/ratetol=1.0/qcomp=0.60/qpmin=0: 0: 0/qpmax=69: 69: 69/qpstep=4/ip_ratio=1.40/aq=1: 0.90/aq-sensitivity=10.00/aq-factor=1.00: 1.00: 1.00/aq2=0/aq3=0
    Default : Yes
    Forced : No
    Audio #1
    ID : 2
    Формат : AC-3
    Формат/Info : Audio Coding 3
    Расширение режима : CM (complete main)
    Кодек ID : A_AC3
    Длительность : 2h 3mn
    Битрейт mode : Constant
    Битрейт : 192 Kbps
    Channel(s) : 2 канала
    Channel positions : Front: L R
    Частота : 48.0 KHz
    Разрядность : 16 bits
    Режим сжатия : Lossy
    Размер потока : 170 MiB (6%)
    Язык : Russian
    Default : Yes
    Forced : No
    Audio #2
    ID : 3
    Формат : AC-3
    Формат/Info : Audio Coding 3
    Расширение режима : CM (complete main)
    Кодек ID : A_AC3
    Длительность : 2h 3mn
    Битрейт mode : Constant
    Битрейт : 192 Kbps
    Channel(s) : 2 канала
    Channel positions : Front: L R
    Частота : 48.0 KHz
    Разрядность : 16 bits
    Режим сжатия : Lossy
    Размер потока : 170 MiB (6%)
    Язык : English
    Default : No
    Forced : No

    Скриншоты

    Залил: Zha-4k-e

    Онлайн видео Варкрафт


    Размер скачиваемого торрента: 2.94 GB (3151696710 Bytes)

    Варкрафт/Warcraft (2016) ТС 720р | D | звук с CAMRip
    загрузка...
    Рейтинг →
     (голосов: 1, оценка 5/5, голосовать можно 1 раз )

    Другие торренты по теме:

  • Варкрафт / Warcraft (2016) WEBRip 1080p | Трейлер#2
  • Варкрафт / Warcraft (2016)
  • Варкрафт / Warcraft (2016) CAMRip | D
  • Варкрафт / Warcraft (2016) CAMRip *Proper* | D
  • Варкрафт / Warcraft (2016) ТС | D | звук с CAMRip
  • Варкрафт / Warcraft (2016) TC 720p | Line
  • Варкрафт / Warcraft (2016) TC 1080p | Line
  • Варкрафт / Warcraft (2016) WEBRip-AVC от Vovan366 | D | Line


    • Комментарии (0):

      Информация

      Информация

        Посетители, находящиеся в группе Гости, не могут оставлять комментарии в данной новости.

        ↓ Меню



        ↓ Опрос

        А Вы добавили сайт в закладки?
        Да
        Не


        Top 10 за месяц (Фильмы)