.
Авторизация | Регистрация
Хочешь лучшие торренты? Добавь свой email!
Добавить
» » 13 часов: Тайные солдаты Бенгази / 13 Hours: The Secret Soldiers of Benghazi (2016) BDRip 720p от Scarabey | Лицензия торрент скачать бесплатно




    13 часов: Тайные солдаты Бенгази / 13 Hours: The Secret Soldiers of Benghazi (2016) BDRip 720p от Scarabey | Лицензия торрент скачать бесплатно

    Опубликовал: Админ | Дата: 11-06-2016, 05:00 | Просмотров: 61



    Создали в: 2016
    Снималось в: США
    Категория жанра: боевик, триллер, драма, военный
    Время просмотра: 02: 24: 25
    Перевод текста: Профессиональный (полное дублирование) Лицензия
    Субтитры подготовлены: русские (форсированные)
    Главный режиссер: Майкл Бэй/Michael Bay

    Актеры
    Джон Красински, Джеймс Бэдж Дэйл, Пабло Шрайбер, Дэвид Денман, Доминик Фумуса, Макс Мартини, Алексия Бальер, Дэвид Костабайл, Пейман Моаади, Мэтт Летчер
    Описание: 2012 год. Бенгази, Ливия. Группа террористов решает отпраздновать события 11 сентября нападением на американское посольство. Шестерке бойцов из элитного спецотряда приказано вмешаться только в крайнем случае. Но когда под угрозой десятки жизней, долг и совесть берут верх над субординацией. И мужественные солдаты без колебаний вступают в бой с яростной группировкой боевиков. Бой, который для всех шестерых, скорее всего, станет последним.
    Качество фильма видео: BDRip 720p
    Тип видео видео: MKV
    Информация о видео: 1280х534, 23.976 fps, AVC ~7886 kbps avg
    Информация о звуке: 48 kHz, AC3 Dolby Digital, 3/2 (L, C, R, l, r) + LFE ch, ~640 kbps
    Информация о видео-VietHD
    Сборка-Scarabey
    Релиз подготовил:
    АНОНСЫ МОИХ РАЗДАЧ!


    Скриншоты

    МедиаИнфо

    13 Hours The Secret Soldiers of Benghazi 2016 720p_BDRip_scarabey.org.mkv
    Format : Matroska
    Format version : Version 4/Version 2
    File size : 8.78 GiB
    Duration : 2h 24mn
    Overall bit rate : 8 699 Kbps
    Encoded date : UTC 2016-06-09 20: 34: 50
    Writing application : mkvmerge v6.1.0 (;Old Devil;) built on Mar 4 2013 09: 10: 42
    Writing library : libebml v1.3.0 + libmatroska v1.4.0
    Video
    ID : 1
    Format : AVC
    Format/Info : Advanced Video Codec
    Format profile : High@L4.1
    Format settings, CABAC : Yes
    Format settings, ReFrames : 12 frames
    Codec ID : V_MPEG4/ISO/AVC
    Duration : 2h 24mn
    Bit rate : 7 886 Kbps
    Width : 1 280 pixels
    Height : 534 pixels
    Display aspect ratio : 2.40: 1
    Frame rate : 23.976 fps
    Color space : YUV
    Chroma subsampling : 4: 2: 0
    Bit depth : 8 bits
    Scan type : Progressive
    Bits/(Pixel*Frame) : 0.481
    Stream size : 7.96 GiB (91%)
    Title : English
    Writing library : x264 core 148 r2692.11 7386685 VietHD_Custom_64
    Encoding settings : cabac=1/ref=12/deblock=1: -3: -3/analyse=0x3: 0x133/me=umh/subme=10/psy=1/fade_compensate=0.00/psy_rd=1.02: 0.00/mixed_ref=1/me_range=24/chroma_me=1/trellis=2/8x8dct=1/cqm=0/deadzone=21, 11/fast_pskip=0/chroma_qp_offset=-2/threads=12/lookahead_threads=2/sliced_threads=0/nr=0/decimate=0/interlaced=0/bluray_compat=0/constrained_intra=0/fgo=0/bframes=8/b_pyramid=2/b_adapt=2/b_bias=0/direct=3/weightb=1/open_gop=0/weightp=2/keyint=250/keyint_min=23/scenecut=40/intra_refresh=0/rc_lookahead=60/rc=crf/mbtree=0/crf=16.5000/qcomp=0.68/qpmin=0: 0: 0/qpmax=69: 69: 69/qpstep=4/vbv_maxrate=62500/vbv_bufsize=78125/crf_max=0.0/nal_hrd=none/filler=0/ip_ratio=1.30/pb_ratio=1.20/aq=3: 0.85/aq-sensitivity=10.00/aq-factor=1.00: 1.00: 1.00/aq2=0/aq3=0/zones=4345, 4410, crf=15.5/4890, 5058, crf=15.5/61629, 63348, crf=15.2/65244, 65508, crf=15/65912, 66296, crf=15/69255, 69339, crf=15.2/70047, 70143, crf=15.5/70311, 70407, crf=15/73734, 73792, crf=15/81085, 82156, crf=15.2/85229, 85805, crf=15/88271, 89639, crf=15/105296, 106520, crf=15.2/108264, 109224, crf=15/132645, 135021, crf=15.2/150747, 154005, crf=15/196678, 207806, crf=22
    Language : English
    Matrix coefficients : BT.709-5, BT.1361, IEC 61966-2-4 709, SMPTE RP177
    Audio
    ID : 2
    Format : AC-3
    Format/Info : Audio Coding 3
    Mode extension : CM (complete main)
    Codec ID : A_AC3
    Duration : 2h 24mn
    Bit rate mode : Constant
    Bit rate : 640 Kbps
    Channel(s) : 6 channels
    Channel positions : Front: L C R, Side: L R, LFE
    Sampling rate : 48.0 KHz
    Bit depth : 16 bits
    Compression mode : Lossy
    Stream size : 661 MiB (7%)
    Title : Дубляж - Лицензия
    Language : Russian
    Text
    ID : 3
    Format : UTF-8
    Codec ID : S_TEXT/UTF8
    Codec ID/Info : UTF-8 Plain Text
    Title : Русские, форсированные
    Language : Russian
    Menu
    00: 00: 00.000 : en: 00: 00: 00.000
    00: 04: 47.662 : en: 00: 04: 47.662
    00: 09: 01.541 : en: 00: 09: 01.541
    00: 15: 31.556 : en: 00: 15: 31.556
    00: 21: 12.229 : en: 00: 21: 12.229
    00: 26: 48.774 : en: 00: 26: 48.774
    00: 31: 22.756 : en: 00: 31: 22.756
    00: 34: 20.058 : en: 00: 34: 20.058
    00: 39: 36.124 : en: 00: 39: 36.124
    00: 47: 12.872 : en: 00: 47: 12.872
    00: 53: 59.027 : en: 00: 53: 59.027
    01: 02: 27.744 : en: 01: 02: 27.744
    01: 10: 03.324 : en: 01: 10: 03.324
    01: 23: 02.477 : en: 01: 23: 02.477
    01: 27: 11.101 : en: 01: 27: 11.101
    01: 34: 50.685 : en: 01: 34: 50.685
    01: 42: 36.359 : en: 01: 42: 36.359
    01: 48: 08.148 : en: 01: 48: 08.148
    01: 53: 47.279 : en: 01: 53: 47.279
    02: 00: 22.882 : en: 02: 00: 22.882
    02: 07: 19.465 : en: 02: 07: 19.465
    02: 18: 25.422 : en: 02: 18: 25.422


    Онлайн видео 13 часов: Тайные солдаты Бенгази


    Размер скачиваемого торрента: 8.78 GB (9426804998 Bytes)

    13 часов: Тайные солдаты Бенгази/13 Hours: The Secret Soldiers of Benghazi (2016) BDRip 720p от Scarabey | Лицензия
    загрузка...
    Рейтинг →
     (голосов: 1, оценка 4/5, голосовать можно 1 раз )

    Другие торренты по теме:

  • 13 часов: Тайные солдаты Бенгази (2016)
  • 13 часов: Тайные солдаты Бенгази / 13 Hours: The Secret Soldiers of Benghazi (2016) WEB-DL 720p | D | Звук с CAMRip
  • 13 часов: Тайные солдаты Бенгази / 13 Hours: The Secret Soldiers of Benghazi (2016) WEB-DL 1080p | D | звук с CAMRip
  • 13 часов: Тайные солдаты Бенгази / 13 Hours: The Secret Soldiers of Benghazi (2016) WEB-DLRip | D | звук с CAMRip
  • 13 часов: Тайные солдаты Бенгази / 13 Hours: The Secret Soldiers of Benghazi (2016) HDRip | D | Line
  • 13 часов: Тайные солдаты Бенгази / 13 Hours: The Secret Soldiers of Benghazi (2016) BDRip 1080p | D | Line
  • 13 часов: Тайные солдаты Бенгази / 13 Hours: The Secret Soldiers of Benghazi (2016) BDRip от ExKinoRay | Line
  • 13 часов: Тайные солдаты Бенгази / 13 Hours: The Secret Soldiers of Benghazi (2016) BDRip 720p от ExKinoRay | Line


    • Комментарии (0):

      Информация

      Информация

        Посетители, находящиеся в группе Гости, не могут оставлять комментарии в данной новости.

        ↓ Меню



        ↓ Опрос

        А Вы добавили сайт в закладки?
        Да
        Не


        Top 10 за месяц (Фильмы)