.
Авторизация | Регистрация
Хочешь лучшие торренты? Добавь свой email!
Добавить
» » Лазурный берег / By the Sea (2015) BDRip 1080p | Лицензия торрент скачать бесплатно




    Лазурный берег / By the Sea (2015) BDRip 1080p | Лицензия торрент скачать бесплатно

    Опубликовал: Админ | Дата: 11-06-2016, 05:00 | Просмотров: 66



    Детально о кино
    Русское название: Лазурный берег
    Русское название в мировом прокате: By the Sea
    Создали в: 2015
    Категория жанра: драма, мелодрама
    Главный режиссер: Анджелина Джоли

    Актеры
    Брэд Питт, Анджелина Джоли, Мелани Лоран, Мельвиль Пупо, Нильс Ареструп, Ришар Боренже, Марика Грин, Сара Науди, Альдо Бонтемпо, Филипп Мартине

    Сюжет фильма

    Франция. Середина 1970-х. Ванесса, бывшая танцовщица, и ее муж Роланд, американский писатель, путешествуют вместе по стране. Понемногу они начинают отдаляться друг от друга, но все меняется, когда они задерживаются в одном тихом приморском городке…
    Снималось в: США, Франция
    Киностудия: Jolie Pas, Pellikola, Plan B Entertainment, Universal Pictures
    Время просмотра: 02: 02: 12
    Перевод текста: Профессиональный (дублированный) Blu-ray CEE
    Файл
    Тип видео: Matroska
    Информация о видео: 1920x800 at 23.976 fps, x264@L4.1, ~7540 kbps avg
    Информация о звуке#1: Russian: 48 kHz, AC3, 3/2 (L, C, R, l, r) + LFE ch, ~448.00 kbps avg |Дубляж, Blu-ray CEE|
    Информация о звуке#2: English: 48 kHz, DTS, 3/2 (L, C, R, l, r) + LFE ch, ~1509.00 kbps avg
    Субтитры: Russian, English, Romanian
    ***Сохранены оригинальные главы как на Blu-ray.
    ***Видеоряд от SA89, сборка - Womanizer0.
    MI
    Общее
    Уникальный идентификатор : 205126416510754139444049970035953120382 (0x9A51E929D08D194C90229A2036B6347E)
    Полное имя : By.the.Sea.2015.1080p.BluRay.x264.Rus.Eng.Subs-SA89.mkv
    Формат : Matroska
    Версия формата : Version 4/Version 2
    Размер файла : 8, 27 Гбайт
    Продолжительность : 2 ч. 2 м.
    Общий поток : 9690 Кбит/сек
    Название фильма : released by aldershot
    Дата кодирования : UTC 2016-06-10 12: 27: 12
    Программа кодирования : mkvmerge v6.9.1 (;Blue Panther;) 64bit built on Apr 18 2014 18: 23: 38
    Библиотека кодирования : libebml v1.3.0 + libmatroska v1.4.1
    Видео
    Идентификатор : 1
    Формат : AVC
    Формат/Информация : Advanced Video Codec
    Профиль формата : High@L4.1
    Параметр CABAC формата : Да
    Параметр ReFrames формата : 5 кадров
    Идентификатор кодека : V_MPEG4/ISO/AVC
    Продолжительность : 2 ч. 2 м.
    Битрейт : 7540 Кбит/сек
    Ширина : 1920 пикселей
    Высота : 800 пикселей
    Соотношение сторон : 2, 40: 1
    Режим частоты кадров : Постоянный
    Частота кадров : 23, 976 кадра/сек
    Цветовое пространство : YUV
    Субдискретизация насыщенности : 4: 2: 0
    Битовая глубина : 8 бит
    Тип развёртки : Прогрессивная
    Бит/(Пиксели*Кадры) : 0.205
    Размер потока : 6, 44 Гбайт (78%)
    Заголовок : SA89
    Библиотека кодирования : x264 core 148 r2665 a01e339
    Настройки программы : cabac=1/ref=5/deblock=1: -3: -3/analyse=0x3: 0x133/me=umh/subme=10/psy=1/psy_rd=1.00: 0.00/mixed_ref=1/me_range=24/chroma_me=1/trellis=2/8x8dct=1/cqm=0/deadzone=21, 11/fast_pskip=1/chroma_qp_offset=-2/threads=6/lookahead_threads=1/sliced_threads=0/nr=0/decimate=1/interlaced=0/bluray_compat=0/constrained_intra=0/bframes=8/b_pyramid=2/b_adapt=2/b_bias=0/direct=3/weightb=1/open_gop=0/weightp=2/keyint=250/keyint_min=25/scenecut=40/intra_refresh=0/rc_lookahead=60/rc=crf/mbtree=0/crf=16.5/qcomp=0.60/qpmin=0/qpmax=69/qpstep=4/vbv_maxrate=62500/vbv_bufsize=78125/crf_max=0.0/nal_hrd=none/filler=0/ip_ratio=1.40/pb_ratio=1.30/aq=1: 0.80
    Default : Да
    Forced : Нет
    Аудио #1
    Идентификатор : 2
    Формат : AC-3
    Формат/Информация : Audio Coding 3
    Расширение режима : CM (complete main)
    Параметр Endianness формата : Big
    Идентификатор кодека : A_AC3
    Продолжительность : 2 ч. 2 м.
    Вид битрейта : Постоянный
    Битрейт : 448 Кбит/сек
    Каналы : 6 каналов
    Расположение каналов : Front: L C R, Side: L R, LFE
    Частота : 48, 0 КГц
    Метод сжатия : С потерями
    Размер потока : 392 Мбайт (5%)
    Заголовок : AC3 5.1 @ 448 Kbps, Дубляж, Blu-Ray CEE
    Язык : Russian
    Default : Да
    Forced : Нет
    Аудио #2
    Идентификатор : 3
    Формат : DTS
    Формат/Информация : Digital Theater Systems
    Режим : 16
    Параметр Endianness формата : Big
    Идентификатор кодека : A_DTS
    Продолжительность : 2 ч. 2 м.
    Вид битрейта : Постоянный
    Битрейт : 1509 Кбит/сек
    Каналы : 6 каналов
    Расположение каналов : Front: L C R, Side: L R, LFE
    Частота : 48, 0 КГц
    Битовая глубина : 24 бит
    Метод сжатия : С потерями
    Размер потока : 1, 29 Гбайт (16%)
    Заголовок : DTS 5.1 @ 1536 Kbps, Original
    Язык : English
    Default : Нет
    Forced : Нет
    Текст #1
    Идентификатор : 4
    Формат : UTF-8
    Идентификатор кодека : S_TEXT/UTF8
    Идентификатор кодека/Информация : UTF-8 Plain Text
    Заголовок : full
    Язык : Romanian
    Default : Нет
    Forced : Нет
    Текст #2
    Идентификатор : 5
    Формат : UTF-8
    Идентификатор кодека : S_TEXT/UTF8
    Идентификатор кодека/Информация : UTF-8 Plain Text
    Заголовок : full, Blu-Ray CEE
    Язык : Russian
    Default : Нет
    Forced : Нет
    Текст #3
    Идентификатор : 6
    Формат : UTF-8
    Идентификатор кодека : S_TEXT/UTF8
    Идентификатор кодека/Информация : UTF-8 Plain Text
    Заголовок : forced, Blu-Ray CEE
    Язык : Russian
    Default : Да
    Forced : Нет
    Текст #4
    Идентификатор : 7
    Формат : UTF-8
    Идентификатор кодека : S_TEXT/UTF8
    Идентификатор кодека/Информация : UTF-8 Plain Text
    Заголовок : forced
    Язык : English
    Default : Нет
    Forced : Нет
    Текст #5
    Идентификатор : 8
    Формат : UTF-8
    Идентификатор кодека : S_TEXT/UTF8
    Идентификатор кодека/Информация : UTF-8 Plain Text
    Заголовок : full
    Язык : English
    Default : Нет
    Forced : Нет
    Текст #6
    Идентификатор : 9
    Формат : UTF-8
    Идентификатор кодека : S_TEXT/UTF8
    Идентификатор кодека/Информация : UTF-8 Plain Text
    Заголовок : SDH
    Язык : English
    Default : Нет
    Forced : Нет
    Меню
    00: 00: 00.000 : en: 00: 00: 00.000
    00: 05: 50.225 : en: 00: 05: 50.225
    00: 13: 54.125 : en: 00: 13: 54.125
    00: 21: 39.048 : en: 00: 21: 39.048
    00: 26: 29.505 : en: 00: 26: 29.505
    00: 32: 46.590 : en: 00: 32: 46.590
    00: 38: 29.682 : en: 00: 38: 29.682
    00: 44: 47.685 : en: 00: 44: 47.685
    00: 50: 43.999 : en: 00: 50: 43.999
    00: 57: 10.469 : en: 00: 57: 10.469
    01: 03: 00.402 : en: 01: 03: 00.402
    01: 06: 42.415 : en: 01: 06: 42.415
    01: 11: 42.381 : en: 01: 11: 42.381
    01: 17: 12.545 : en: 01: 17: 12.545
    01: 24: 36.863 : en: 01: 24: 36.863
    01: 30: 59.913 : en: 01: 30: 59.913
    01: 36: 52.473 : en: 01: 36: 52.473
    01: 46: 12.408 : en: 01: 46: 12.408
    01: 53: 27.342 : en: 01: 53: 27.342
    01: 58: 08.290 : en: 01: 58: 08.290
    Скриншоты


    Онлайн видео Лазурный берег


    Размер скачиваемого торрента: 8.27 GB (8881288431 Bytes)

    Лазурный берег/By the Sea (2015) BDRip 1080p | Лицензия
    загрузка...
    Рейтинг →
     (голосов: 1, оценка 4/5, голосовать можно 1 раз )

    Другие торренты по теме:

  • Валерий Яценко - Лазурный берег
  • У моря (Лазурный берег) / By the Sea (2015) WEBRip (1080p) | L
  • Лазурный берег / By the Sea (2015) WEBRip 1080p | L2
  • Лазурный берег (2016) качество HDRip
  • Лазурный берег / By the Sea (2015) WEB-DLRip | iTunes
  • Лазурный берег / By the Sea (2015) WEB-DLRip от Scarabey | iTunes
  • Лазурный берег / By the Sea (2015) BDRemux 1080p | iTunes
  • Лазурный берег / By the Sea (2015) BDRip-AVC от ExKinoRay | iTunes


    • Комментарии (0):

      Информация

      Информация

        Посетители, находящиеся в группе Гости, не могут оставлять комментарии в данной новости.

        ↓ Меню



        ↓ Опрос

        А Вы добавили сайт в закладки?
        Да
        Не


        Top 10 за месяц (Фильмы)