.
Авторизация | Регистрация
Хочешь лучшие торренты? Добавь свой email!
Добавить
» » Лазурный берег / By the Sea (2015) BDRemux 1080p от ExKinoRay | Лицензия торрент скачать бесплатно




    Лазурный берег / By the Sea (2015) BDRemux 1080p от ExKinoRay | Лицензия торрент скачать бесплатно

    Опубликовал: Админ | Дата: 12-06-2016, 05:00 | Просмотров: 51



    Детально о кино
    Русское название: Лазурный берег
    Русское название в мировом прокате: By the Sea
    Создали в: 2015
    Категория жанра: Драма, мелодрама
    Главный режиссер: Анджелина Джоли

    Актеры
    Анджелина Джоли, Брэд Питт, Мелани Лоран, Мельвиль Пупо, Нильс Ареструп, Ришар Боренже, Джордж Камиллери, Анна Качья, Фридерик Десса

    Сюжет фильма

    Франция. Середина 1970-х. Ванесса, бывшая танцовщица, и ее муж Роланд, американский писатель, путешествуют вместе по стране. Понемногу они начинают отдаляться друг от друга, но все меняется, когда они задерживаются в одном тихом приморском городке…

    Снималось в: США, Франция
    Киностудия: Jolie Pas, Pellikola, Plan B Entertainment, Universal Pictures
    Время просмотра: 02: 02: 12
    Перевод текста: Дублированный | Лицензия Blu-Ray CEE
    Файл
    Кодек для видео: MPEG-4
    Качество фильма: BDRemux 1080p
    Информация о видео: 1920x1080, 30.8 Mbit/s, 23.976 fps
    Информация о звуке:
    Информация о звуке #01: 48 kHz, AC3, 5.1, 448 Kbps | Дублированный, Лицензия Blu-Ray CEE | AC3
    Информация о звуке #02: 48 kHz, DTS-HD MA, 5.1, 3072 kbps | Оригинал | DTS-HD MA
    Субтитры: Русские, английские
    Релиз подготовил: Автор релиза:

    MI
    General
    Unique ID : 220718933660211793055268389569762122069 (0xA60CEB9CE7E111D8992AB0D4EE335955)
    Complete name : F: VideoBy.the.Sea.2015.BDREMUX.1080p.ExKinoRay.mkv
    Format : Matroska
    Format version : Version 4/Version 2
    File size : 29.3 GiB
    Duration : 2h 2mn
    Overall bit rate mode : Variable
    Overall bit rate : 34.3 Mbps
    Movie name : By.the.Sea.2015.BDREMUX.1080p.ExKinoRay
    Encoded date : UTC 2016-06-11 12: 00: 32
    Writing application : mkvmerge v8.3.0 (;Over the Horizon;) 64bit
    Writing library : libebml v1.3.1 + libmatroska v1.4.2
    Video
    ID : 1
    Format : AVC
    Format/Info : Advanced Video Codec
    Format profile : High@L4.1
    Format settings, CABAC : Yes
    Format settings, ReFrames : 4 frames
    Codec ID : V_MPEG4/ISO/AVC
    Duration : 2h 2mn
    Bit rate mode : Variable
    Bit rate : 30.8 Mbps
    Maximum bit rate : 34.0 Mbps
    Width : 1 920 pixels
    Height : 1 080 pixels
    Display aspect ratio : 16: 9
    Frame rate mode : Constant
    Frame rate : 23.976 (24000/1001) fps
    Color space : YUV
    Chroma subsampling : 4: 2: 0
    Bit depth : 8 bits
    Scan type : Progressive
    Bits/(Pixel*Frame) : 0.619
    Stream size : 26.3 GiB (90%)
    Title : By.the.Sea.2015.BDREMUX.1080p.ExKinoRay.***селезень***
    Language : English
    Default : Yes
    Forced : No
    Audio #1
    ID : 2
    Format : AC-3
    Format/Info : Audio Coding 3
    Mode extension : CM (complete main)
    Format settings, Endianness : Big
    Codec ID : A_AC3
    Duration : 2h 2mn
    Bit rate mode : Constant
    Bit rate : 448 Kbps
    Channel(s) : 6 channels
    Channel positions : Front: L C R, Side: L R, LFE
    Sampling rate : 48.0 KHz
    Frame rate : 31.250 fps (1536 spf)
    Compression mode : Lossy
    Stream size : 392 MiB (1%)
    Title : DUB License Blu-Ray CEE
    Language : Russian
    Default : Yes
    Forced : No
    Audio #2
    ID : 3
    Format : DTS
    Format/Info : Digital Theater Systems
    Format profile : MA/Core
    Mode : 16
    Format settings, Endianness : Big
    Codec ID : A_DTS
    Duration : 2h 2mn
    Bit rate mode : Variable/Constant
    Bit rate : 3 072 Kbps/1 509 Kbps
    Channel(s) : 6 channels
    Channel positions : Front: L C R, Side: L R, LFE
    Sampling rate : 48.0 KHz
    Frame rate : 93.750 fps (512 spf)
    Bit depth : 24 bits
    Compression mode : Lossless/Lossy
    Stream size : 2.61 GiB (9%)
    Title : Original
    Language : English
    Default : No
    Forced : No
    Text #1
    ID : 4
    Format : UTF-8
    Codec ID : S_TEXT/UTF8
    Codec ID/Info : UTF-8 Plain Text
    Duration : 1h 55mn
    Bit rate : 41 bps
    Count of elements : 841
    Stream size : 34.7 KiB (0%)
    Title : Full
    Language : Russian
    Default : No
    Forced : No
    Text #2
    ID : 5
    Format : UTF-8
    Codec ID : S_TEXT/UTF8
    Codec ID/Info : UTF-8 Plain Text
    Duration : 1h 54mn
    Bit rate : 23 bps
    Count of elements : 873
    Stream size : 19.7 KiB (0%)
    Title : ull
    Language : English
    Default : No
    Forced : No
    Text #3
    ID : 6
    Format : UTF-8
    Codec ID : S_TEXT/UTF8
    Codec ID/Info : UTF-8 Plain Text
    Duration : 1h 57mn
    Bit rate : 27 bps
    Count of elements : 1074
    Stream size : 23.8 KiB (0%)
    Title : SDH
    Language : English
    Default : No
    Forced : No
    Menu #1
    00: 00: 00.000 : en: 00: 00: 00.000
    00: 05: 50.225 : en: 00: 05: 50.225
    00: 13: 54.125 : en: 00: 13: 54.125
    00: 21: 39.048 : en: 00: 21: 39.048
    00: 26: 29.505 : en: 00: 26: 29.505
    00: 32: 46.590 : en: 00: 32: 46.590
    00: 38: 29.682 : en: 00: 38: 29.682
    00: 44: 47.685 : en: 00: 44: 47.685
    00: 50: 43.999 : en: 00: 50: 43.999
    00: 57: 10.469 : en: 00: 57: 10.469
    01: 03: 00.402 : en: 01: 03: 00.402
    01: 06: 42.415 : en: 01: 06: 42.415
    01: 11: 42.381 : en: 01: 11: 42.381
    01: 17: 12.545 : en: 01: 17: 12.545
    01: 24: 36.863 : en: 01: 24: 36.863
    01: 30: 59.913 : en: 01: 30: 59.913
    01: 36: 52.473 : en: 01: 36: 52.473
    01: 46: 12.408 : en: 01: 46: 12.408
    01: 53: 27.342 : en: 01: 53: 27.342
    01: 58: 08.290 : en: 01: 58: 08.290
    Menu #2
    00: 00: 00.054 : en: 00: 00: 00.054
    Скриншоты


    Онлайн видео Лазурный берег


    Размер скачиваемого торрента: 29.27 GB (31430200307 Bytes)

    Лазурный берег/By the Sea (2015) BDRemux 1080p от ExKinoRay | Лицензия
    загрузка...
    Рейтинг →
     (голосов: 1, оценка 3/5, голосовать можно 1 раз )

    Другие торренты по теме:

  • Валерий Яценко - Лазурный берег
  • У моря (Лазурный берег) / By the Sea (2015) WEBRip (1080p) | L
  • Лазурный берег / By the Sea (2015) WEBRip 1080p | L2
  • Лазурный берег (2016) качество HDRip
  • Лазурный берег / By the Sea (2015) WEB-DLRip | iTunes
  • Лазурный берег / By the Sea (2015) WEB-DLRip от Scarabey | iTunes
  • Лазурный берег / By the Sea (2015) BDRemux 1080p | iTunes
  • Лазурный берег / By the Sea (2015) BDRip-AVC от ExKinoRay | iTunes


    • Комментарии (0):

      Информация

      Информация

        Посетители, находящиеся в группе Гости, не могут оставлять комментарии в данной новости.

        ↓ Меню



        ↓ Опрос

        А Вы добавили сайт в закладки?
        Да
        Не


        Top 10 за месяц (Фильмы)