.
Авторизация | Регистрация
» » Да здравствует Цезарь! / Hail, Caesar! (2016) BDRip | D | Лицензия скачать торрент бесплатно




    Да здравствует Цезарь! / Hail, Caesar! (2016) BDRip | D | Лицензия скачать торрент бесплатно

    Опубликовал: Админ | Дата: 12-06-2016, 05:00 | Просмотров: 45



    Lights. Camera. Abduction
    Детально о кино
    Русское название: Да здравствует Цезарь!
    Русское название в мировом прокате: Hail, Caesar!
    Создали в: 2016
    Категория жанра: Комедия, детектив
    Главный режиссер: Итан Коэн, Джоэл Коэн

    Актеры
    Джош Бролин, Джордж Клуни, Олден Эренрайк, Рэйф Файнс, Скарлетт Йоханссон, Тильда Суинтон, Фрэнсис МакДорманд, Ченнинг Татум, Джона Хилл, Вероника Осорио

    Сюжет фильма

    Добро пожаловать в Голливуд — империю блеска, роскоши и порока. Здесь обитают кумиры миллионов. Что ни день — пиршество для светских хроникеров. И вот однажды исчезает исполнитель главной роли в фильме Да здравствует Цезарь!. Ни жена, ни многочисленные любовницы не знают, где он. И теперь продюсера студии ждет веселый денек, ведь он должен найти звезду раньше репортеров…

    Снималось в: Великобритания, США, Япония
    Киностудия: Mike Zoss Productions, Dentsu, Working Title Films
    Время просмотра: 01: 46: 06
    Перевод текста: Профессиональный (полное дублирование)BD CEE
    Файл
    Качество фильма: BDRip (исх.Да здравствует Цезарь!/Hail, Caesar! (2016) 1080p BD-Remux )
    Кодек для видео: XviD
    Информация о видео: 720x384 (1, 85: 1), 23, 976 fps, XviD ~1513 kbps avg, 0.228 bit/pixel
    Информация о звуке: 48 kHz, AC3, 6 ch, ~448.00 kbps avg | русский|Профессиональный (полное дублирование)BD CEE
    Субтитры: отсутствуют
    Семпл
    Инфо-файл
    Общее
    Полное имя : D: TorrentsЗавершенныеHail.Caesar.2016.D.BDRip.by stillet.avi
    Формат : AVI
    Формат/Информация : Audio Video Interleave
    Размер файла : 1, 46 Гбайт
    Продолжительность : 1 ч. 46 м.
    Общий поток : 1970 Кбит/сек
    Программа кодирования : VirtualDubMod 1.5.10.3 (build 2550/release)
    Библиотека кодирования : VirtualDubMod build 2550/release
    Видео
    Идентификатор : 0
    Формат : MPEG-4 Visual
    Профиль формата : Advanced Simple@L5
    Параметр BVOP формата : 2
    Параметр QPel формата : Нет
    Параметр GMC формата : Без точки перехода
    Параметр матрицы формата : Default (MPEG)
    Идентификатор кодека : XVID
    Идентификатор кодека/Подсказка : XviD
    Продолжительность : 1 ч. 46 м.
    Битрейт : 1513 Кбит/сек
    Ширина : 720 пикселей
    Высота : 384 пикселя
    Соотношение сторон : 1, 85: 1
    Частота кадров : 23, 976 (23976/1000) кадра/сек
    Цветовое пространство : YUV
    Субдискретизация насыщенности : 4: 2: 0
    Битовая глубина : 8 бит
    Тип развёртки : Прогрессивная
    Метод сжатия : С потерями
    Бит/(Пиксели*Кадры) : 0.228
    Размер потока : 1, 12 Гбайт (77%)
    Библиотека кодирования : XviD 73
    Аудио
    Идентификатор : 1
    Формат : AC-3
    Формат/Информация : Audio Coding 3
    Расширение режима : CM (complete main)
    Параметр Endianness формата : Big
    Идентификатор кодека : 2000
    Продолжительность : 1 ч. 46 м.
    Вид битрейта : Постоянный
    Битрейт : 448 Кбит/сек
    Каналы : 6 каналов
    Расположение каналов : Front: L C R, Side: L R, LFE
    Частота : 48, 0 КГц
    Частота кадров : 31, 250 кадров/сек (1536 spf)
    Метод сжатия : С потерями
    Размер потока : 340 Мбайт (23%)
    Выравнивание : Разделение по промежуткам
    Продолжительность промежутка : 42 мс. (1, 00 видеокадр)
    Время предзагрузки промежутка : 500 мс.
    Скриншоты

    Залил: admiralkz

    Онлайн видео Да здравствует Цезарь!


    Размер скачиваемого торрента: 1.46 GB (1567780864 Bytes)

    Да здравствует Цезарь!/Hail, Caesar! (2016) BDRip | D | Лицензия
    загрузка...
    Рейтинг →
     (голосов: 1, оценка 4/5, голосовать можно 1 раз )

    Другие торренты по теме:

  • Да здравствует Цезарь! / Hail, Caesar! (2016) WEB-DL 1080p от ExKinoRay | iTunes скачать торрент бесплатно
  • Да здравствует Цезарь! / Hail, Caesar! (2016) WEB-DLRip от Scarabey | iTunes скачать торрент бесплатно
  • Да здравствует Цезарь! / Hail, Caesar! (2016) скачать торрент бесплатно
  • Да здравствует Цезарь! / Hail, Caesar! (2016) HDRip от MegaPeer | iTunes скачать торрент бесплатно
  • Да здравствует Цезарь! / Hail, Caesar! (2016) BDRip 1080p | D | iTunes скачать торрент бесплатно
  • Да здравствует Цезарь! / Hail, Caesar! (2016) BDRip 720p | D | iTunes скачать торрент бесплатно
  • Да здравствует Цезарь! / Hail, Caesar! (2016) BDRip 720p от ExKinoRay | iTunes скачать торрент бесплатно
  • Да здравствует Цезарь! / Hail, Caesar! (2016) BDRip 1080p от ExKinoRay | iTunes скачать торрент бесплатно


    • Комментарии (0):

      Информация

      Информация

        Посетители, находящиеся в группе Гости, не могут оставлять комментарии в данной новости.

        ↓ Меню



        ↓ Опрос

        А Вы добавили сайт в закладки?
        Да
        Не


        Top 10 за неделю (Фильмы)