.
Авторизация | Регистрация
Хочешь лучшие торренты? Добавь свой email!
Добавить
» » Петер и Петра / Peter och Petra (1989) DVDRip | Sub торрент скачать бесплатно




    Петер и Петра / Peter och Petra (1989) DVDRip | Sub торрент скачать бесплатно

    Опубликовал: Админ | Дата: 12-06-2016, 05:00 | Просмотров: 82



    Детально о кино
    Русское название: Петер и Петра
    Русское название в мировом прокате: Peter och Petra
    Создали в: 1989
    Категория жанра: семейный, сказка
    Главный режиссер: Агнета Элерс-Ярлеман

    Актеры
    Анна Карлссон, Пер Эггерс, Бьёрн Джеда, Хенрик Хольмберг, Барбро Ларссон, Анн Петрен, Йошуа Петсонк, Эбба Сойе-Берггрен, Калле Торен, Биргитта Вальберг

    Сюжет фильма

    Однажды в дверь класса, в котором учился Гуннар, постучали. Открыв дверь, он не поверил своим глазам: к ним в класс пришли учиться крохотные мальчик и девочка, ростом не выше куклы! Дети с радостью принимают новых одноклассников, а Гуннар становится им особо близким другом.
    По одноимённой сказке Астрид Линдгрен.

    Создали в: Швеция/SVT Drama, Svensk Filmindustri (SF)
    Время просмотра: 01: 10: 45
    Перевод текста: русские субтитры от Ali+sher aka Alisha
    Файл
    Качество фильма: DVDRip
    Тип видео: AVI
    Информация о видео: XviD, 720x464 (16: 10), 25.000 fps, 2664 kbps, 0.319 bit/pixel
    Информация о звуке: шведский, AC3 1.0, 48 kHz, 96 kbps
    Субтитры: русские, шведские внешние, SRT
    MediaInfo
    Формат : AVI
    Формат/Информация : Audio Video Interleave
    Размер файла : 1, 37 Гбайт
    Продолжительность : 1 ч. 10 м.
    Общий поток : 2767 Кбит/сек
    Программа кодирования : VirtualDubMod 1.5.4.1 (build 2178/release)
    Библиотека кодирования : VirtualDubMod build 2178/release
    Видео
    Идентификатор : 0
    Формат : MPEG-4 Visual
    Профиль формата : Advanced Simple@L5
    Параметр BVOP формата : Нет
    Параметр QPel формата : Нет
    Параметр GMC формата : Без точки перехода
    Параметр матрицы формата : Выборочная
    Идентификатор кодека : XVID
    Идентификатор кодека/Подсказка : XviD
    Продолжительность : 1 ч. 10 м.
    Битрейт : 2664 Кбит/сек
    Ширина : 720 пикселей
    Высота : 464 пикселя
    Соотношение сторон : 16: 10
    Частота кадров : 25, 000 кадров/сек
    Цветовое пространство : YUV
    Субдискретизация насыщенности : 4: 2: 0
    Битовая глубина : 8 бит
    Тип развёртки : Прогрессивная
    Метод сжатия : С потерями
    Бит/(Пиксели*Кадры) : 0.319
    Размер потока : 1, 32 Гбайт (96%)
    Библиотека кодирования : XviD 64
    Аудио
    Идентификатор : 1
    Формат : AC-3
    Формат/Информация : Audio Coding 3
    Расширение режима : CM (complete main)
    Параметр Endianness формата : Big
    Идентификатор кодека : 2000
    Продолжительность : 1 ч. 10 м.
    Вид битрейта : Постоянный
    Битрейт : 96, 0 Кбит/сек
    Каналы : 1 канал
    Расположение каналов : Front: C
    Частота : 48, 0 КГц
    Метод сжатия : С потерями
    Размер потока : 48, 6 Мбайт (3%)
    Выравнивание : Соединение по промежуткам
    Продолжительность промежутка : 96 мс. (2, 40 видеокадра)
    Время предзагрузки промежутка : 96 мс.
    Язык : Svenska
    Скриншоты

    Залил: makkaronni

    Онлайн видео Петер и Петра


    Размер скачиваемого торрента: 1.37 GB (1468420298 Bytes)

    Петер и Петра/Peter och Petra (1989) DVDRip | Sub
    загрузка...
    Рейтинг →
     (голосов: 1, оценка 5/5, голосовать можно 1 раз )

    Другие торренты по теме:

  • Швейцер Петер - Тайная стратегия развала СССР (2013) FB2


    • Комментарии (0):

      Информация

      Информация

        Посетители, находящиеся в группе Гости, не могут оставлять комментарии в данной новости.

        ↓ Меню



        ↓ Опрос

        А Вы добавили сайт в закладки?
        Да
        Не


        Top 10 за месяц (Фильмы)