.
Авторизация | Регистрация
» » Да здравствует Цезарь! / Hail, Caesar! (2016) HDRip от MegaPeer | Лицензия скачать торрент бесплатно




    Да здравствует Цезарь! / Hail, Caesar! (2016) HDRip от MegaPeer | Лицензия скачать торрент бесплатно

    Опубликовал: Админ | Дата: 12-06-2016, 05:00 | Просмотров: 56



    Детально о кино
    Русское название: Да здравствует Цезарь!
    Русское название в мировом прокате: Hail, Caesar!
    Создали в: 2016
    Категория жанра: комедия, детектив
    Главный режиссер: Итан Коэн, Джоэл Коэн

    Актеры
    Джош Бролин, Джордж Клуни, Олден Эренрайк, Рэйф Файнс, Скарлетт Йоханссон, Тильда Суинтон, Фрэнсис МакДорманд, Ченнинг Татум, Джона Хилл, Вероника Осорио

    Сюжет фильма
    Добро пожаловать в Голливуд — империю блеска, роскоши и порока. Здесь обитают кумиры миллионов. Что ни день — пиршество для светских хроникеров. И вот однажды исчезает исполнитель главной роли в фильме Да здравствует Цезарь!. Ни жена, ни многочисленные любовницы не знают, где он. И теперь продюсера студии ждет веселый денек, ведь он должен найти звезду раньше репортеров…

    Снималось в: Великобритания, США, Япония
    Киностудия: Mike Zoss Productions
    Время просмотра: 01: 46: 05
    Перевод текста: Профессиональный (полное, дублирование) BD CEE
    Файл
    Тип видео: AVI
    Качество фильма: HDRip
    Информация о видео: Xvid, 656x352, 23.97 6fps, 847 kbps
    Информация о звуке: MP3, 2 ch, ~128 kbps
    Субтитры: | отсутствуют |
    Релиз:
    Скриншоты

    MediaInfo:
    Общее
    Полное имя : NASMegaPeerHail.Caesar.2016.D.HDRip.745MB.MegaPeer.avi
    Формат : AVI
    Формат/Информация : Audio Video Interleave
    Размер файла : 745 Мбайт
    Продолжительность : 1 ч. 46 м.
    Общий поток : 981 Кбит/сек
    Видео
    Идентификатор : 0
    Формат : MPEG-4 Visual
    Профиль формата : Advanced Simple@L5
    Параметр BVOP формата : 1
    Параметр QPel формата : Нет
    Параметр GMC формата : Без точки перехода
    Параметр матрицы формата : Выборочная
    Идентификатор кодека : XVID
    Идентификатор кодека/Подсказка : XviD
    Продолжительность : 1 ч. 46 м.
    Битрейт : 848 Кбит/сек
    Ширина : 656 пикселей
    Высота : 352 пикселя
    Соотношение сторон : 1, 85: 1
    Частота кадров : 23, 976 (24000/1001) кадра/сек
    Цветовое пространство : YUV
    Субдискретизация насыщенности : 4: 2: 0
    Битовая глубина : 8 бит
    Тип развёртки : Прогрессивная
    Метод сжатия : С потерями
    Бит/(Пиксели*Кадры) : 0.153
    Размер потока : 643 Мбайт (86%)
    Библиотека кодирования : XviD 73
    Аудио
    Идентификатор : 1
    Формат : MPEG Audio
    Версия формата : Version 1
    Профиль формата : Layer 3
    Режим : Joint stereo
    Расширение режима : MS Stereo
    Идентификатор кодека : 55
    Идентификатор кодека/Подсказка : MP3
    Продолжительность : 1 ч. 46 м.
    Вид битрейта : Постоянный
    Битрейт : 128 Кбит/сек
    Каналы : 2 канала
    Частота : 48, 0 КГц
    Метод сжатия : С потерями
    Размер потока : 97, 1 Мбайт (13%)
    Выравнивание : Соединение по промежуткам
    Продолжительность промежутка : 167 мс. (4, 00 видеокадра)
    Время предзагрузки промежутка : 216 мс.
    Заголовок : BD_CEE
    Библиотека кодирования : LAME3.99r
    Залил: ukollov

    Онлайн видео Да здравствует Цезарь!


    Размер скачиваемого торрента: 744.73 MB (780909742 Bytes)


    Да здравствует Цезарь!/Hail, Caesar! (2016) HDRip от MegaPeer | Лицензия
    загрузка...
    Рейтинг →
     (голосов: 1, оценка 3/5, голосовать можно 1 раз )

    Другие торренты по теме:



      Комментарии (0):

      Информация

      Информация

        Посетители, находящиеся в группе Гости, не могут оставлять комментарии в данной новости.

        ↓ Меню



        ↓ Опрос

        А Вы добавили сайт в закладки?
        Да
        Не


        Top 10 за неделю (Фильмы)