.
Авторизация | Регистрация
» » Да здравствует Цезарь! / Hail, Caesar! (2016) BDRip 1080p от ExKinoRay | Лицензия скачать торрент бесплатно




    Да здравствует Цезарь! / Hail, Caesar! (2016) BDRip 1080p от ExKinoRay | Лицензия скачать торрент бесплатно

    Опубликовал: Админ | Дата: 12-06-2016, 05:00 | Просмотров: 58



    Детально о кино
    Русское название: Да здравствует Цезарь!
    Русское название в мировом прокате: Hail, Caesar!
    Создали в: 2016
    Категория жанра: Комедия, детектив
    Главный режиссер: Итан Коэн, Джоэл Коэн

    Актеры
    Джош Бролин, Джордж Клуни, Олден Эренрайк, Рэйф Файнс, Скарлетт Йоханссон, Тильда Суинтон, Фрэнсис МакДорманд, Ченнинг Татум, Джона Хилл, Вероника Осорио

    Сюжет фильма

    Добро пожаловать в Голливуд — империю блеска, роскоши и порока. Здесь обитают кумиры миллионов. Что ни день — пиршество для светских хроникеров. И вот однажды исчезает исполнитель главной роли в фильме Да здравствует Цезарь!. Ни жена, ни многочисленные любовницы не знают, где он. И теперь продюсера студии ждет веселый денек, ведь он должен найти звезду раньше репортеров…

    Снималось в: Великобритания, США, Япония
    Киностудия: Mike Zoss Productions
    Время просмотра: 01: 46: 06
    Перевод текста: Дублированный | Лицензия Blu-Ray CEE
    Файл
    Кодек для видео: MPEG-4
    Качество фильма: BDRip 1080p
    Информация о видео: 1920x1040, 17.0 Mbit/s, 23.976 fps
    Информация о звуке:
    Информация о звуке #01: 48 kHz, AC3, 5.1, 448 Kbps | Лицензия Blu-Ray CEE |
    Информация о звуке #02: 48 kHz, DTS-HD HRA, 5.1, 2046 kbps | Оригинал |
    Субтитры: Русские (forced, full), английские (srt, SDH, SDH Colored)
    Релиз подготовил: Автор релиза:

    MI
    General
    Unique ID : 191414084798866015564313697132107761987 (0x900103034DC32C85A83A1DF4D4078943)
    Complete name : F: VideohailHail.Caesar!....2016.BDRip.1080p.ExKinoRay.mkv
    Format : Matroska
    Format version : Version 4/Version 2
    File size : 14.4 GiB
    Duration : 1h 46mn
    Overall bit rate : 19.5 Mbps
    Movie name : Hail.Caesar!....2016.BDRip.1080p.ExKinoRay
    Encoded date : UTC 2016-06-11 14: 10: 45
    Writing application : mkvmerge v8.3.0 (;Over the Horizon;) 64bit
    Writing library : libebml v1.3.1 + libmatroska v1.4.2
    Video
    ID : 1
    Format : AVC
    Format/Info : Advanced Video Codec
    Format profile : High@L4.1
    Format settings, CABAC : Yes
    Format settings, ReFrames : 4 frames
    Codec ID : V_MPEG4/ISO/AVC
    Duration : 1h 46mn
    Bit rate : 17.0 Mbps
    Width : 1 920 pixels
    Height : 1 040 pixels
    Display aspect ratio : 1.85: 1
    Frame rate mode : Constant
    Frame rate : 23.976 (24000/1001) fps
    Color space : YUV
    Chroma subsampling : 4: 2: 0
    Bit depth : 8 bits
    Scan type : Progressive
    Bits/(Pixel*Frame) : 0.355
    Stream size : 12.6 GiB (87%)
    Title : Hail.Caesar!.2016.BDRip.1080p.ExKinoRay
    Writing library : x264 core 148 r2692 64f4e24
    Encoding settings : cabac=1/ref=4/deblock=1: -3: -3/analyse=0x3: 0x133/me=umh/subme=11/psy=1/psy_rd=1.00: 0.00/mixed_ref=1/me_range=32/chroma_me=1/trellis=2/8x8dct=1/cqm=0/deadzone=21, 11/fast_pskip=0/chroma_qp_offset=-2/threads=12/lookahead_threads=3/sliced_threads=0/nr=0/decimate=1/interlaced=0/bluray_compat=0/constrained_intra=0/bframes=10/b_pyramid=2/b_adapt=2/b_bias=0/direct=3/weightb=1/open_gop=0/weightp=2/keyint=240/keyint_min=23/scenecut=40/intra_refresh=0/rc_lookahead=120/rc=crf/mbtree=0/crf=17.0/qcomp=0.65/qpmin=0/qpmax=60/qpstep=4/vbv_maxrate=62500/vbv_bufsize=78125/crf_max=0.0/nal_hrd=none/filler=0/ip_ratio=1.30/pb_ratio=1.20/aq=1: 0.50
    Language : English
    Default : Yes
    Forced : No
    Color range : Limited
    Color primaries : BT.709
    Transfer characteristics : BT.709
    Matrix coefficients : BT.709
    Audio #1
    ID : 2
    Format : AC-3
    Format/Info : Audio Coding 3
    Mode extension : CM (complete main)
    Format settings, Endianness : Big
    Codec ID : A_AC3
    Duration : 1h 46mn
    Bit rate mode : Constant
    Bit rate : 448 Kbps
    Channel(s) : 6 channels
    Channel positions : Front: L C R, Side: L R, LFE
    Sampling rate : 48.0 KHz
    Frame rate : 31.250 fps (1536 spf)
    Compression mode : Lossy
    Stream size : 340 MiB (2%)
    Title : DUB License Blu-Ray CEE
    Language : Russian
    Default : Yes
    Forced : No
    Audio #2
    ID : 3
    Format : DTS
    Format/Info : Digital Theater Systems
    Format profile : HRA/Core
    Mode : 16
    Format settings, Endianness : Big
    Codec ID : A_DTS
    Duration : 1h 46mn
    Bit rate mode : Constant
    Bit rate : 2 046 Kbps/1 509 Kbps
    Channel(s) : 6 channels
    Channel positions : Front: L C R, Side: L R, LFE
    Sampling rate : 48.0 KHz
    Frame rate : 93.750 fps (512 spf)
    Bit depth : 24 bits
    Compression mode : Lossy
    Stream size : 1.52 GiB (11%)
    Title : Original DTS-HD High Resolution Audio
    Language : English
    Default : No
    Forced : No
    Text #1
    ID : 4
    Format : UTF-8
    Codec ID : S_TEXT/UTF8
    Codec ID/Info : UTF-8 Plain Text
    Duration : 1h 26mn
    Bit rate : 1 bps
    Count of elements : 16
    Stream size : 695 Bytes (0%)
    Title : Forced
    Language : Russian
    Default : Yes
    Forced : No
    Text #2
    ID : 5
    Format : UTF-8
    Codec ID : S_TEXT/UTF8
    Codec ID/Info : UTF-8 Plain Text
    Duration : 1h 38mn
    Bit rate : 121 bps
    Count of elements : 1598
    Stream size : 87.6 KiB (0%)
    Title : Full
    Language : Russian
    Default : No
    Forced : No
    Text #3
    ID : 6
    Format : UTF-8
    Codec ID : S_TEXT/UTF8
    Codec ID/Info : UTF-8 Plain Text
    Duration : 1h 38mn
    Bit rate : 78 bps
    Count of elements : 1793
    Stream size : 56.7 KiB (0%)
    Title : Full
    Language : English
    Default : No
    Forced : No
    Text #4
    ID : 7
    Format : UTF-8
    Codec ID : S_TEXT/UTF8
    Codec ID/Info : UTF-8 Plain Text
    Duration : 1h 38mn
    Bit rate : 88 bps
    Count of elements : 1912
    Stream size : 63.8 KiB (0%)
    Title : SDH
    Language : English
    Default : No
    Forced : No
    Text #5
    ID : 8
    Format : UTF-8
    Codec ID : S_TEXT/UTF8
    Codec ID/Info : UTF-8 Plain Text
    Duration : 1h 38mn
    Bit rate : 100 bps
    Count of elements : 1912
    Stream size : 72.5 KiB (0%)
    Title : SDH Colored
    Language : English
    Default : No
    Forced : No
    Menu
    00: 00: 00.000 : en: Chapter 1
    00: 03: 59.322 : en: Chapter 2
    00: 09: 38.369 : en: Chapter 3
    00: 12: 58.736 : en: Chapter 4
    00: 17: 34.178 : en: Chapter 5
    00: 22: 29.223 : en: Chapter 6
    00: 29: 55.961 : en: Chapter 7
    00: 35: 37.427 : en: Chapter 8
    00: 41: 49.090 : en: Chapter 9
    00: 47: 09.618 : en: Chapter 10
    00: 50: 40.746 : en: Chapter 11
    00: 57: 25.108 : en: Chapter 12
    01: 01: 17.424 : en: Chapter 13
    01: 07: 21.913 : en: Chapter 14
    01: 14: 02.229 : en: Chapter 15
    01: 17: 41.365 : en: Chapter 16
    01: 22: 38.704 : en: Chapter 17
    01: 28: 54.412 : en: Chapter 18
    01: 33: 50.959 : en: Chapter 19
    01: 39: 26.419 : en: Chapter 20
    Скриншоты


    Онлайн видео Да здравствует Цезарь!


    Размер скачиваемого торрента: 14.44 GB (15504282885 Bytes)

    Да здравствует Цезарь!/Hail, Caesar! (2016) BDRip 1080p от ExKinoRay | Лицензия
    загрузка...
    Рейтинг →
     (голосов: 1, оценка 5/5, голосовать можно 1 раз )

    Другие торренты по теме:



      Комментарии (0):

      Информация

      Информация

        Посетители, находящиеся в группе Гости, не могут оставлять комментарии в данной новости.

        ↓ Меню



        ↓ Опрос

        А Вы добавили сайт в закладки?
        Да
        Не


        Top 10 за неделю (Фильмы)