.
Авторизация | Регистрация
Хочешь лучшие торренты? Добавь свой email!
Добавить
» » Два капитана (1955) DVDRip от New-Team торрент скачать бесплатно




    Два капитана (1955) DVDRip от New-Team торрент скачать бесплатно

    Опубликовал: Админ | Дата: 12-06-2016, 15:36 | Просмотров: 80



    Снималось в: СССР
    Создали в: Ленфильм
    Категория жанра: приключения
    Создали в: 1955
    Время просмотра: 01: 31: 31
    Перевод текста: Не требуется
    Субтитры подготовлены: нет
    Оригинальная аудиодорожка: русский
    Главный режиссер: Владимир Венгеров

    Актеры

    Александр Михайлов, Ольга Заботкина, Анатолий Адоскин, Евгений Лебедев, Борис Беляев, Людмила Безуглая, Борис Аракелов, Эдуард Кузнецов, Инна Кондратьева, Леонид Галлис, Бруно Фрейндлих, Татьяна Пельтцер, Елена Максимова, Нина Дробышева, Михаил Ладыгин...
    Полный список актёров
    Описание:
    По одноименному роману В. Каверина.
    С детских лет Саня Григорьев умел добиваться успеха в любом деле. Он вырос мужественным и храбрым человеком. Мечта разыскать остатки экспедиции капитана Татаринова привела его в ряды летчиков-полярников. Жизнь капитана Григорьева полна героических событий: он летал над Арктикой, сражался против фашистов. Его подстерегали опасности, приходилось терпеть временные поражения, но настойчивый и целеустремленный характер героя помогает ему сдержать клятву, данную себе еще в детстве: Бороться и искать, найти и не сдаваться.



    Источник: DVD9 R5
    Качество фильма видео: DVDRip
    Тип видео видео: AVI
    Информация о видео: 576x432 (4: 3), 25 fps, XviD ~ 1001 kbps avg, 0.161 bit/pixel
    Информация о звуке: 48 kHz, MP3 2.0, 128 kbps
    Раздача от:
    MediaInfo

    Общее
    Полное имя : Dva.kapitana.1955.DVDRip-745_New-team_by_AVP_Studio.avi
    Формат : AVI
    Формат/Информация : Audio Video Interleave
    Размер файла : 745 Мбайт
    Продолжительность : 1 ч. 31 м.
    Общий поток : 1138 Кбит/сек
    Программа кодирования : VirtualDubMod 1.5.10.3 | www.virtualdub-fr.org || (build 2550/release)
    Библиотека кодирования : VirtualDubMod build 2550/release
    Видео
    Идентификатор : 0
    Формат : MPEG-4 Visual
    Профиль формата : Advanced Simple@L5
    Параметр BVOP формата : 1
    Параметр QPel формата : Нет
    Параметр GMC формата : Без точки перехода
    Параметр матрицы формата : Выборочная
    Идентификатор кодека : XVID
    Идентификатор кодека/Подсказка : XviD
    Продолжительность : 1 ч. 31 м.
    Битрейт : 1001 Кбит/сек
    Ширина : 576 пикселей
    Высота : 432 пикселя
    Соотношение сторон : 4: 3
    Частота кадров : 25, 000 кадров/сек
    Цветовое пространство : YUV
    Субдискретизация насыщенности : 4: 2: 0
    Битовая глубина : 8 бит
    Тип развёртки : Прогрессивная
    Метод сжатия : С потерями
    Бит/(Пиксели*Кадры) : 0.161
    Размер потока : 655 Мбайт (88%)
    Библиотека кодирования : XviD 1.2.1 (UTC 2008-12-04)
    Аудио
    Идентификатор : 1
    Формат : MPEG Audio
    Версия формата : Version 1
    Профиль формата : Layer 3
    Идентификатор кодека : 55
    Идентификатор кодека/Подсказка : MP3
    Продолжительность : 1 ч. 31 м.
    Вид битрейта : Постоянный
    Битрейт : 128 Кбит/сек
    Каналы : 2 канала
    Частота : 48, 0 КГц
    Метод сжатия : С потерями
    Размер потока : 83, 8 Мбайт (11%)
    Выравнивание : Соединение по промежуткам
    Продолжительность промежутка : 40 мс. (1, 00 видеокадр)
    Время предзагрузки промежутка : 504 мс.
    Библиотека кодирования : LAME3.99r
    Залил: AVPStudio

    Онлайн видео Два капитана (1955) DVDRip от New


    Размер скачиваемого торрента: 745.05 MB (781244416 Bytes)


    Два капитана (1955) DVDRip от New-Team
    загрузка...
    Рейтинг →
     (голосов: 1, оценка 5/5, голосовать можно 1 раз )

    Другие торренты по теме:

  • Приключения капитана Врунгеля (1976-1979) DVDRip от R.G.RealMT | КПК
  • Приключения капитана Врунгеля (1976-1979) DVDRip от R.G.RealMT
  • В поисках потерпевших кораблекрушение / Дети капитана Гранта / In Search of the Castaways (1962) DVDRip-AVC от F-Torrents скачать через торрент бесплатно
  • Таинственный остров капитана Немо / Die geheimnisvolle Insel / La isla misteriosa (1973) DVDRip от Pshichko66
  • Сексназ капитана Пантохи / Pantaleon y las visitadoras (2000) DVDRip от Koenig | P


    • Комментарии (0):

      Информация

      Информация

        Посетители, находящиеся в группе Гости, не могут оставлять комментарии в данной новости.

        ↓ Меню



        ↓ Опрос

        А Вы добавили сайт в закладки?
        Да
        Не


        Top 10 за месяц (Фильмы)