.
Авторизация | Регистрация
» » В сердце моря / In the Heart of the Sea (2015) DVD9 от New-Team | Лицензия скачать торрент бесплатно




    В сердце моря / In the Heart of the Sea (2015) DVD9 от New-Team | Лицензия скачать торрент бесплатно

    Опубликовал: Админ | Дата: 13-06-2016, 05:00 | Просмотров: 44



    Детально о кино
    Русское название: В сердце моря
    Русское название в мировом прокате: In the Heart of the Sea
    Создали в: 2015
    Категория жанра: боевик, триллер, драма, приключения, биография, история
    Главный режиссер: Рон Ховард/Ron Howard

    Актеры
    Крис Хемсворт, Бенджамин Уокер, Киллиан Мёрфи, Брендан Глисон, Бен Уишоу, Мишель Фэйрли, Том Холланд, Пол Андерсон, Фрэнк Диллэйн, Джозеф Моул

    Сюжет фильма

    В 1819 году американский корабль Эссекс с командой из двух десятков человек на борту отправился из порта в штате Массачусетс на китобойный промысел. Осенью 1820-го успешная на протяжении полутора лет охота была прервана атакой гигантского кашалота на судно, в результате чего морякам пришлось пересесть в шлюпки. В течение трех с лишним месяцев они боролись за выживание посреди океана…

    Снималось в: США, Австралия, Испания, Великобритания, Канада
    Киностудия: Cott Productions, Enelmar Productions, A.I.E., Imagine Entertainment, K. JAM Media, Roth Films, Spring Creek Productionsб Sur-Filmб Village Roadshow Picturesб Warner Bros. Pictures
    Время просмотра: 01: 56: 44
    Перевод текста: Дублированный Лицензия
    Файл
    Кодек для видео: MPEG2
    Качество фильма: DVD9 R5
    Информация о видео: PAL 16: 9 (720x576(0.552)) MPEG Video, 25, 000 кадр/сек, 5722 Кбит/сек
    Информация о звуке:
    Информация о звуке #1: English (Dolby AC3, 6 ch) 384 Кбит/сек, 48, 0 КГц
    Информация о звуке #2: Czech(Ceske) (Dolby AC3, 6 ch) 384 Кбит/сек, 48, 0 КГц
    Информация о звуке #3: Russian (Dolby AC3, 6 ch) 384 Кбит/сек, 48, 0 КГц
    Информация о звуке #4: English (Dolby AC3, 2 ch) 192 Кбит/сек, 48, 0 КГц
    Субтитры: русские, английские, чешские, эстонские, латышские, литовские, португальские
    DVDInfo
    Title: V.serdce.morja.2015.D.DVD9
    Size: 5.91 Gb ( 6 201 676, 00 KBytes ) - DVD-9
    Enabled regions: 1, 2, 3, 4, 5, 6, 7, 8
    VTS_01 :
    Play Length: 01: 56: 44+00: 00: 00+00: 07: 10
    Video: PAL 16: 9 (720x576) VBR, Auto Letterboxed
    Audio:
    English, AC3, 3/2 (L, C, R, SL, SR)+LFE ch, 384 kbps, Delay 0 mSec
    Czech(Ceske), AC3, 3/2 (L, C, R, SL, SR)+LFE ch, 384 kbps, Delay 0 mSec
    Russian, AC3, 3/2 (L, C, R, SL, SR)+LFE ch, 384 kbps, Delay 0 mSec
    English,
    Subtitles:
    English
    Czech(Ceske)
    Estonian
    Latvian
    Lithuanian
    Portugues
    Russian
    Czech(Ceske)
    Russian
    VTS_02 :
    Play Length: 00: 00: 10
    Video: PAL 16: 9 (720x576) VBR, Auto Letterboxed
    Audio:
    Not specified (Dolby AC3, 6 ch)
    Subtitles:
    Not specified
    * Menus Information *
    VIDEO_TS Menu
    Video:
    PAL 16: 9 (720x576) VBR
    Auto PanScan
    Language Unit :
    Title Menu
    VTS_01 Menu
    Video:
    PAL 16: 9 (720x576) VBR
    Auto PanScan
    Audio:
    Not specified (Dolby AC3, 2 ch)
    English Language Unit :
    Root Menu
    VTS_02 Menu
    Video:
    NTSC 4: 3 (720x480) VBR
    Auto PanScan, Auto Letterboxed
    Language Unit :
    Root Menu

    MediaInfo
    Общее
    Полное имя : D: Новинки 2016V.serdce.morja.2015.D.DVD9VIDEO_TSVTS_01_2.VOB
    Формат : MPEG-PS
    Размер файла : 1024 Мбайт
    Продолжительность : 20 м.
    Режим общего битрейта : Переменный
    Общий поток : 7014 Кбит/сек
    Видео
    Идентификатор : 224 (0xE0)
    Формат : MPEG Video
    Версия формата : Version 2
    Профиль формата : Main@Main
    Параметр BVOP формата : Да
    Параметр матрицы формата : Выборочная
    Параметр GOP формата : Variable
    Продолжительность : 20 м.
    Вид битрейта : Переменный
    Битрейт : 5722 Кбит/сек
    Максимальный битрейт : 9800 Кбит/сек
    Ширина : 720 пикселей
    Высота : 576 пикселей
    Соотношение сторон : 16: 9
    Частота кадров : 25, 000 кадров/сек
    Стандарт вещания : PAL
    Цветовое пространство : YUV
    Субдискретизация насыщенности : 4: 2: 0
    Битовая глубина : 8 бит
    Тип развёртки : Прогрессивная
    Порядок развёртки : Верхнее поле первое
    Метод сжатия : С потерями
    Бит/(Пиксели*Кадры) : 0.552
    Временной код первого кадра : 01: 20: 23: 06
    Оригинал временного кода : Group of pictures t_head
    Размер потока : 835 Мбайт (82%)
    Аудио #1
    Идентификатор : 189 (0xBD)-128 (0x80)
    Формат : AC-3
    Формат/Информация : Audio Coding 3
    Расширение режима : CM (complete main)
    Параметр Endianness формата : Big
    Режим смешивания : DVD-Video
    Продолжительность : 20 м.
    Вид битрейта : Постоянный
    Битрейт : 384 Кбит/сек
    Каналы : 6 каналов
    Расположение каналов : Front: L C R, Side: L R, LFE
    Частота : 48, 0 КГц
    Частота кадров : 31, 250 кадров/сек (1536 spf)
    Метод сжатия : С потерями
    Задержка видео : -320 мс.
    Размер потока : 56, 1 Мбайт (5%)
    Аудио #2
    Идентификатор : 189 (0xBD)-129 (0x81)
    Формат : AC-3
    Формат/Информация : Audio Coding 3
    Расширение режима : CM (complete main)
    Параметр Endianness формата : Big
    Режим смешивания : DVD-Video
    Продолжительность : 20 м.
    Вид битрейта : Постоянный
    Битрейт : 384 Кбит/сек
    Каналы : 6 каналов
    Расположение каналов : Front: L C R, Side: L R, LFE
    Частота : 48, 0 КГц
    Частота кадров : 31, 250 кадров/сек (1536 spf)
    Метод сжатия : С потерями
    Задержка видео : -320 мс.
    Размер потока : 56, 1 Мбайт (5%)
    Аудио #3
    Идентификатор : 189 (0xBD)-130 (0x82)
    Формат : AC-3
    Формат/Информация : Audio Coding 3
    Расширение режима : CM (complete main)
    Параметр Endianness формата : Big
    Режим смешивания : DVD-Video
    Продолжительность : 20 м.
    Вид битрейта : Постоянный
    Битрейт : 384 Кбит/сек
    Каналы : 6 каналов
    Расположение каналов : Front: L C R, Side: L R, LFE
    Частота : 48, 0 КГц
    Частота кадров : 31, 250 кадров/сек (1536 spf)
    Метод сжатия : С потерями
    Задержка видео : -320 мс.
    Размер потока : 56, 1 Мбайт (5%)
    Текст #1
    Идентификатор : 189 (0xBD)-32 (0x20)
    Формат : RLE
    Формат/Информация : Run-length encoding
    Режим смешивания : DVD-Video
    Задержка видео : 2 с. 760 мс.
    Текст #2
    Идентификатор : 189 (0xBD)-33 (0x21)
    Формат : RLE
    Формат/Информация : Run-length encoding
    Режим смешивания : DVD-Video
    Задержка видео : 2 с. 520 мс.
    Текст #3
    Идентификатор : 189 (0xBD)-34 (0x22)
    Формат : RLE
    Формат/Информация : Run-length encoding
    Режим смешивания : DVD-Video
    Задержка видео : 2 с. 680 мс.
    Текст #4
    Идентификатор : 189 (0xBD)-35 (0x23)
    Формат : RLE
    Формат/Информация : Run-length encoding
    Режим смешивания : DVD-Video
    Задержка видео : 2 с. 600 мс.
    Текст #5
    Идентификатор : 189 (0xBD)-36 (0x24)
    Формат : RLE
    Формат/Информация : Run-length encoding
    Режим смешивания : DVD-Video
    Задержка видео : 2 с. 600 мс.
    Текст #6
    Идентификатор : 189 (0xBD)-37 (0x25)
    Формат : RLE
    Формат/Информация : Run-length encoding
    Режим смешивания : DVD-Video
    Задержка видео : 2 с. 680 мс.
    Текст #7
    Идентификатор : 189 (0xBD)-38 (0x26)
    Формат : RLE
    Формат/Информация : Run-length encoding
    Режим смешивания : DVD-Video
    Задержка видео : 2 с. 760 мс.

    Скриншоты меню



    Скриншоты фильма



    Скриншоты доп. материалов



    Релиз подготовил:
    Залил: voovaz

    Онлайн видео В сердце моря


    Размер скачиваемого торрента: 5.91 GB (6350516224 Bytes)

    В сердце моря/In the Heart of the Sea (2015) DVD9 от New-Team | Лицензия
    загрузка...
    Рейтинг →
     (голосов: 1, оценка 4/5, голосовать можно 1 раз )

    Другие торренты по теме:



      Комментарии (0):

      Информация

      Информация

        Посетители, находящиеся в группе Гости, не могут оставлять комментарии в данной новости.

        ↓ Меню



        ↓ Опрос

        А Вы добавили сайт в закладки?
        Да
        Не


        Top 10 за неделю (Фильмы)