.
Авторизация | Регистрация
Хочешь лучшие торренты? Добавь свой email!
Добавить
» » Братья из Гримсби / Grimsby (2016) BDRemux 1080p от ExKinoRay | D, A | iTunes торрент скачать бесплатно




    Братья из Гримсби / Grimsby (2016) BDRemux 1080p от ExKinoRay | D, A | iTunes торрент скачать бесплатно

    Опубликовал: Админ | Дата: 13-06-2016, 05:00 | Просмотров: 45



    Детально о кино
    Русское название: Братья из Гримсби
    Русское название в мировом прокате: Grimsby
    Создали в: 2016
    Категория жанра: Боевик, комедия
    Главный режиссер: Луи Летерье

    Актеры
    Саша Барон Коэн, Марк Стронг, Ребел Уилсон, Пенелопа Крус, Айла Фишер, Габури Сидибе, Аннабелль Уоллис, Иэн МакШейн, Дэвид Хэрвуд, Рикки Томлинсон

    Сюжет фильма

    Сверхсекретная операция, которую выполняет образцовый спецагент, с треском провалена из-за некстати свалившегося на его голову неадекватного брата — оголтелого футбольного фаната и полного беспредельщика. Теперь герою предстоит спасти свою жизнь и вдобавок планету от нависшей над ней угрозы — практически невыполнимая задача в тандеме с вновь приобретенным родственником.

    Снималось в: Великобритания, Австралия
    Киностудия: Big Talk Productions, Columbia Pictures, Four by Two Films, LStar Capital
    Время просмотра: 01: 23: 31
    Перевод текста: Дублированный | iTunes
    Авторский одноголосый (закадровый), В. Котов
    Файл
    Кодек для видео: MPEG-4
    Качество фильма: BDRemux 1080p
    Информация о видео: 1920x1080, 24.9 Mbit/s, 23.976 fps
    Информация о звуке:
    Информация о звуке #01: 48 kHz, AC3, 5.1, 384 Kbps | Дублированный, iTunes | AC3
    Информация о звуке #02: 48 kHz, AC3, 5.1, 640 Kbps | Авторский одноголосый (закадровый), В. Котов | AC3
    Информация о звуке #03: 48 kHz, DTS, 5.1, 1510 Kbps | Авторский одноголосый (закадровый), В. Котов | DTS
    Информация о звуке #04: 48 kHz, DTS-HD MA, 5.1, 2312 kbps | Оригинал | DTS-HD MA
    Субтитры: Русские (forced, full), английские (srt.SDH)
    Релиз подготовил: Автор релиза:

    MI
    General
    Unique ID : 201467163522352401573613733939700227990 (0x97912A0FD11C73C4A07244B6C9E2DF96)
    Complete name : F: VideogrimsbyThe.Brothers.Grimsby....2016.BDREMUX.1080p.ExKinoRay.mkv
    Format : Matroska
    Format version : Version 4/Version 2
    File size : 17.3 GiB
    Duration : 1h 23mn
    Overall bit rate mode : Variable
    Overall bit rate : 29.7 Mbps
    Movie name : The.Brothers.Grimsby....2016.BDREMUX.1080p.ExKinoRay
    Encoded date : UTC 2016-06-12 10: 39: 31
    Writing application : mkvmerge v8.3.0 (;Over the Horizon;) 64bit
    Writing library : libebml v1.3.1 + libmatroska v1.4.2
    Video
    ID : 1
    Format : AVC
    Format/Info : Advanced Video Codec
    Format profile : High@L4.1
    Format settings, CABAC : Yes
    Format settings, ReFrames : 2 frames
    Format settings, GOP : M=1, N=10
    Codec ID : V_MPEG4/ISO/AVC
    Duration : 1h 23mn
    Bit rate mode : Variable
    Bit rate : 24.9 Mbps
    Width : 1 920 pixels
    Height : 1 080 pixels
    Display aspect ratio : 16: 9
    Frame rate mode : Constant
    Frame rate : 23.976 (24000/1001) fps
    Color space : YUV
    Chroma subsampling : 4: 2: 0
    Bit depth : 8 bits
    Scan type : Progressive
    Bits/(Pixel*Frame) : 0.500
    Stream size : 14.5 GiB (84%)
    Title : The.Brothers.Grimsby.2016.BDREMUX.1080p.ExKinoRay.***селезень***
    Language : English
    Default : Yes
    Forced : No
    Audio #1
    ID : 2
    Format : AC-3
    Format/Info : Audio Coding 3
    Mode extension : CM (complete main)
    Format settings, Endianness : Big
    Codec ID : A_AC3
    Duration : 1h 23mn
    Bit rate mode : Constant
    Bit rate : 384 Kbps
    Channel(s) : 6 channels
    Channel positions : Front: L C R, Side: L R, LFE
    Sampling rate : 48.0 KHz
    Frame rate : 31.250 fps (1536 spf)
    Compression mode : Lossy
    Stream size : 228 MiB (1%)
    Title : DUB iTunes
    Language : Russian
    Default : Yes
    Forced : No
    Audio #2
    ID : 3
    Format : AC-3
    Format/Info : Audio Coding 3
    Mode extension : CM (complete main)
    Format settings, Endianness : Big
    Codec ID : A_AC3
    Duration : 1h 23mn
    Bit rate mode : Constant
    Bit rate : 640 Kbps
    Channel(s) : 6 channels
    Channel positions : Front: L C R, Side: L R, LFE
    Sampling rate : 48.0 KHz
    Frame rate : 31.250 fps (1536 spf)
    Compression mode : Lossy
    Stream size : 381 MiB (2%)
    Title : AVO-AC3 V.Kotov
    Language : Russian
    Default : No
    Forced : No
    Audio #3
    ID : 4
    Format : DTS
    Format/Info : Digital Theater Systems
    Mode : 16
    Format settings, Endianness : Big
    Codec ID : A_DTS
    Duration : 1h 23mn
    Bit rate mode : Constant
    Bit rate : 1 509 Kbps
    Channel(s) : 6 channels
    Channel positions : Front: L C R, Side: L R, LFE
    Sampling rate : 48.0 KHz
    Frame rate : 93.750 fps (512 spf)
    Bit depth : 24 bits
    Compression mode : Lossy
    Stream size : 898 MiB (5%)
    Title : AVO-DTS V.Kotov
    Language : Russian
    Default : No
    Forced : No
    Audio #4
    ID : 5
    Format : DTS
    Format/Info : Digital Theater Systems
    Format profile : MA/Core
    Mode : 16
    Format settings, Endianness : Big
    Codec ID : A_DTS
    Duration : 1h 23mn
    Bit rate mode : Variable/Constant
    Bit rate : 2 312 Kbps/1 509 Kbps
    Channel(s) : 6 channels
    Channel positions : Front: L C R, Side: L R, LFE
    Sampling rate : 48.0 KHz
    Frame rate : 93.750 fps (512 spf)
    Bit depth : 16 bits
    Compression mode : Lossless/Lossy
    Stream size : 1.34 GiB (8%)
    Title : Original
    Language : English
    Default : No
    Forced : No
    Text #1
    ID : 6
    Format : UTF-8
    Codec ID : S_TEXT/UTF8
    Codec ID/Info : UTF-8 Plain Text
    Duration : 1h 14mn
    Bit rate : 2 bps
    Count of elements : 28
    Stream size : 1.48 KiB (0%)
    Title : FORCED
    Language : Russian
    Default : Yes
    Forced : No
    Text #2
    ID : 7
    Format : UTF-8
    Codec ID : S_TEXT/UTF8
    Codec ID/Info : UTF-8 Plain Text
    Duration : 1h 21mn
    Bit rate : 101 bps
    Count of elements : 1128
    Stream size : 60.8 KiB (0%)
    Title : FULL
    Language : Russian
    Default : No
    Forced : No
    Text #3
    ID : 8
    Format : UTF-8
    Codec ID : S_TEXT/UTF8
    Codec ID/Info : UTF-8 Plain Text
    Duration : 1h 21mn
    Bit rate : 58 bps
    Count of elements : 1063
    Stream size : 34.8 KiB (0%)
    Title : FULL
    Language : English
    Default : No
    Forced : No
    Text #4
    ID : 9
    Format : UTF-8
    Codec ID : S_TEXT/UTF8
    Codec ID/Info : UTF-8 Plain Text
    Duration : 1h 22mn
    Bit rate : 69 bps
    Count of elements : 1383
    Stream size : 42.1 KiB (0%)
    Title : SDH
    Language : English
    Default : No
    Forced : No
    Menu
    00: 00: 00.000 : en: Chapter 01
    00: 06: 54.331 : en: Chapter 02
    00: 11: 00.994 : en: Chapter 03
    00: 16: 25.735 : en: Chapter 04
    00: 21: 37.630 : en: Chapter 05
    00: 26: 43.727 : en: Chapter 06
    00: 31: 46.863 : en: Chapter 07
    00: 36: 48.706 : en: Chapter 08
    00: 41: 57.056 : en: Chapter 09
    00: 46: 54.979 : en: Chapter 10
    00: 52: 19.595 : en: Chapter 11
    00: 57: 28.487 : en: Chapter 12
    01: 01: 27.851 : en: Chapter 13
    01: 06: 16.139 : en: Chapter 14
    01: 11: 52.099 : en: Chapter 15
    01: 16: 25.873 : en: Chapter 16
    Скриншоты


    Онлайн видео Братья из Гримсби


    Размер скачиваемого торрента: 17.27 GB (18545293559 Bytes)

    Братья из Гримсби/Grimsby (2016) BDRemux 1080p от ExKinoRay | D, A | iTunes
    загрузка...
    Рейтинг →
     (голосов: 1, оценка 5/5, голосовать можно 1 раз )

    Другие торренты по теме:

  • Братья из Гримсби / Grimsby (2016) WEB-DLRip | Line
  • Братья из Гримсби / Grimsby (2016) WEB-DLRip от Scarabey | Line
  • Братья из Гримсби / Grimsby (2016)
  • Братья из Гримсби / Grimsby (2016) BDRip от ExKinoRay | iTunes
  • Братья из Гримсби / Grimsby (2016) BDRemux 1080p от ExKinoRay | iTunes
  • Братья из Гримсби / Grimsby (2016) HDRip | D | iTunes
  • Братья из Гримсби / Grimsby (2016) BDRip-AVC | iTunes
  • Братья из Гримсби / Grimsby (2016) BDRip 720p | iTunes


    • Комментарии (0):

      Информация

      Информация

        Посетители, находящиеся в группе Гости, не могут оставлять комментарии в данной новости.

        ↓ Меню



        ↓ Опрос

        А Вы добавили сайт в закладки?
        Да
        Не


        Top 10 за месяц (Фильмы)