.
Авторизация | Регистрация
» » Рио Кончос / Rio Conchos (1964) DVDRip | Кузнецов скачать торрент бесплатно




    Рио Кончос / Rio Conchos (1964) DVDRip | Кузнецов скачать торрент бесплатно

    Опубликовал: Админ | Дата: 13-06-2016, 05:00 | Просмотров: 112



    Снималось в: США
    Создали в: Twentieth Century Fox Film Corporation
    Категория жанра: Вестерн
    Создали в: 1964
    Время просмотра: 01: 42: 38
    Перевод текста: Авторский (Кузнецов)
    Главный режиссер: Гордон Дуглас

    Актеры
    Ричард Бун, Стюарт Уитман, Энтони Франчоза, Венде Вагнер, Уорнер Андерсон, Джим Браун, Родольфо Акоста, Бэрри Келли, Вито Скотти, Хаус Питерс мл.
    Описание: Плохой полковник хочет загнать новые винтовки злым апачам, но хорошие и храбрые американцы-патриоты им все портят….

    Исходник: DVD9 R1
    Тип релиза: DVDRip
    Контейнер: AVI
    Информация о видео: 688x288 (2.39: 1), 25 fps, XviD MPEG-4 ~1636 kbps avg, 0.33 bit/pixel
    Информация о звуке 1: 48 kHz, AC3 Dolby Digital, 2/0 (L, R) ch, ~192 kbps (русский)
    Информация о звуке 2: 48 kHz, AC3 Dolby Digital, 2/0 (L, R) ch, ~192 kbps (английский)
    MediaInfo

    Общее
    Полное имя : D: ААА2Рио Кончос.avi
    Формат : AVI
    Формат/Информация : Audio Video Interleave
    Размер файла : 1, 46 Гбайт
    Продолжительность : 1 ч. 42 м.
    Общий поток : 2036 Кбит/сек
    Программа кодирования : VirtualDubMod 1.5.10.2 (build 2540/release)
    Библиотека кодирования : VirtualDubMod build 2540/release
    Видео
    Идентификатор : 0
    Формат : MPEG-4 Visual
    Профиль формата : Advanced Simple@L5
    Параметр BVOP формата : 2
    Параметр QPel формата : Нет
    Параметр GMC формата : Без точки перехода
    Параметр матрицы формата : Default (H.263)
    Режим смешивания : Сжатый битовый поток
    Идентификатор кодека : XVID
    Идентификатор кодека/Подсказка : XviD
    Продолжительность : 1 ч. 42 м.
    Битрейт : 1638 Кбит/сек
    Ширина : 688 пикселей
    Высота : 288 пикселей
    Соотношение сторон : 2, 40: 1
    Частота кадров : 25, 000 кадров/сек
    Цветовое пространство : YUV
    Субдискретизация насыщенности : 4: 2: 0
    Битовая глубина : 8 бит
    Тип развёртки : Прогрессивная
    Метод сжатия : С потерями
    Бит/(Пиксели*Кадры) : 0.331
    Размер потока : 1, 17 Гбайт (80%)
    Библиотека кодирования : XviD 1.2.1 (UTC 2008-12-04)
    Аудио #1
    Идентификатор : 1
    Формат : AC-3
    Формат/Информация : Audio Coding 3
    Расширение режима : CM (complete main)
    Параметр Endianness формата : Big
    Идентификатор кодека : 2000
    Продолжительность : 1 ч. 42 м.
    Вид битрейта : Постоянный
    Битрейт : 192 Кбит/сек
    Каналы : 2 канала
    Расположение каналов : Front: L R
    Частота : 48, 0 КГц
    Битовая глубина : 16 бит
    Метод сжатия : С потерями
    Задержка видео : 1 с. 250 мс.
    Размер потока : 141 Мбайт (9%)
    Выравнивание : Разделение по промежуткам
    Продолжительность промежутка : 40 мс. (1, 00 видеокадр)
    Время предзагрузки промежутка : 500 мс.
    Аудио #2
    Идентификатор : 2
    Формат : AC-3
    Формат/Информация : Audio Coding 3
    Расширение режима : CM (complete main)
    Параметр Endianness формата : Big
    Идентификатор кодека : 2000
    Продолжительность : 1 ч. 42 м.
    Вид битрейта : Постоянный
    Битрейт : 192 Кбит/сек
    Каналы : 2 канала
    Расположение каналов : Front: L R
    Частота : 48, 0 КГц
    Битовая глубина : 16 бит
    Метод сжатия : С потерями
    Размер потока : 141 Мбайт (9%)
    Выравнивание : Разделение по промежуткам
    Продолжительность промежутка : 40 мс. (1, 00 видеокадр)
    Время предзагрузки промежутка : 500 мс.
    Скриншоты





    Релиз:
    Залил: YArl

    Онлайн видео Рио Кончос


    Размер скачиваемого торрента: 1.46 GB (1567393792 Bytes)

    Рио Кончос/Rio Conchos (1964) DVDRip | Кузнецов
    загрузка...
    Рейтинг →
     (голосов: 1, оценка 5/5, голосовать можно 1 раз )

    Другие торренты по теме:



      Комментарии (0):

      Информация

      Информация

        Посетители, находящиеся в группе Гости, не могут оставлять комментарии в данной новости.

        ↓ Меню



        ↓ Опрос

        А Вы добавили сайт в закладки?
        Да
        Не


        Top 10 за неделю (Фильмы)