.
Авторизация | Регистрация
» » Растяпы / The Almost Guys (2004) DVDRip | A скачать торрент бесплатно




    Растяпы / The Almost Guys (2004) DVDRip | A скачать торрент бесплатно

    Опубликовал: Админ | Дата: 13-06-2016, 05:00 | Просмотров: 47



    Детально о кино
    Русское название: Растяпы
    Русское название в мировом прокате: The Almost Guys
    Создали в: 2004
    Категория жанра: комедия
    Главный режиссер: Эрик Флеминг

    Актеры
    Питер Аллас, Пьетро Арпеселла, Скотт Балдига, Роберт Калп, Оливер Дэвис, Джеймс Эдсон, Сьюзэн Иган, Эрик Флеминг, Ли Тэ-джун

    Сюжет фильма

    Рик Мерфи и его 73-летний партнер по кличке Полковник работают на контору по конфискации автомобилей. Забрав очередной автомобиль, в багажнике они находят известного бейсболиста Джима Максвелла. Оказывается, Рик и Полковник конфисковали автомобиль мафии, похитившей Джима...

    Создали в: США/Corporate Greed, L.A. Media Group, Pogue Mahone Productions
    Время просмотра: 01: 39: 12
    Перевод текста: авторский одноголосый Юрий Живов
    Файл
    Качество фильма: DVDRip
    Тип видео: AVI
    Информация о видео: XviD, 720x416 (16: 9), 23.976 fps, 1650 kbps, 0.23 bit/pixel
    Информация о звуке #1: русский, AC3 5.1, 48 kHz, 448 kbps
    Информация о звуке #2: английский, AC3 5.1, 48 kHz, 448 kbps
    MediaInfo
    Формат : AVI
    Формат/Информация : Audio Video Interleave
    Размер файла : 1, 77 Гбайт
    Продолжительность : 1 ч. 39 м.
    Общий поток : 2560 Кбит/сек
    Программа кодирования : VirtualDubMod 1.5.10.2 (build 2540/release)
    Библиотека кодирования : VirtualDubMod build 2540/release
    Видео
    Идентификатор : 0
    Формат : MPEG-4 Visual
    Профиль формата : Advanced Simple@L5
    Параметр BVOP формата : 1
    Параметр QPel формата : Нет
    Параметр GMC формата : Без точки перехода
    Параметр матрицы формата : Выборочная
    Идентификатор кодека : XVID
    Идентификатор кодека/Подсказка : XviD
    Продолжительность : 1 ч. 39 м.
    Битрейт : 1650 Кбит/сек
    Ширина : 720 пикселей
    Высота : 416 пикселей
    Соотношение сторон : 1, 731
    Частота кадров : 23, 976 кадра/сек
    Цветовое пространство : YUV
    Субдискретизация насыщенности : 4: 2: 0
    Битовая глубина : 8 бит
    Тип развёртки : Прогрессивная
    Метод сжатия : С потерями
    Бит/(Пиксели*Кадры) : 0.230
    Размер потока : 1, 14 Гбайт (64%)
    Библиотека кодирования : XviD 1.2.1 (UTC 2008-12-04)
    Аудио #1
    Идентификатор : 1
    Формат : AC-3
    Формат/Информация : Audio Coding 3
    Расширение режима : CM (complete main)
    Параметр Endianness формата : Big
    Идентификатор кодека : 2000
    Продолжительность : 1 ч. 39 м.
    Вид битрейта : Постоянный
    Битрейт : 448 Кбит/сек
    Каналы : 6 каналов
    Расположение каналов : Front: L C R, Side: L R, LFE
    Частота : 48, 0 КГц
    Метод сжатия : С потерями
    Размер потока : 318 Мбайт (17%)
    Выравнивание : Разделение по промежуткам
    Продолжительность промежутка : 42 мс. (1, 00 видеокадр)
    Время предзагрузки промежутка : 500 мс.
    Язык : English
    Аудио #2
    Идентификатор : 2
    Формат : AC-3
    Формат/Информация : Audio Coding 3
    Расширение режима : CM (complete main)
    Параметр Endianness формата : Big
    Идентификатор кодека : 2000
    Продолжительность : 1 ч. 39 м.
    Вид битрейта : Постоянный
    Битрейт : 448 Кбит/сек
    Каналы : 6 каналов
    Расположение каналов : Front: L C R, Side: L R, LFE
    Частота : 48, 0 КГц
    Метод сжатия : С потерями
    Размер потока : 318 Мбайт (17%)
    Выравнивание : Разделение по промежуткам
    Продолжительность промежутка : 42 мс. (1, 00 видеокадр)
    Время предзагрузки промежутка : 500 мс.
    Скриншоты

    Залил: makkaronni

    Онлайн видео Растяпы


    Размер скачиваемого торрента: 1.77 GB (1904822272 Bytes)

    Растяпы/The Almost Guys (2004) DVDRip | A
    загрузка...
    Рейтинг →
     (голосов: 1, оценка 5/5, голосовать можно 1 раз )

    Другие торренты по теме:



      Комментарии (0):

      Информация

      Информация

        Посетители, находящиеся в группе Гости, не могут оставлять комментарии в данной новости.

        ↓ Меню



        ↓ Опрос

        А Вы добавили сайт в закладки?
        Да
        Не


        Top 10 за неделю (Фильмы)