.
Авторизация | Регистрация
» » Михайло Ломоносов (1955) DVDRip от New-Team скачать торрент бесплатно




    Михайло Ломоносов (1955) DVDRip от New-Team скачать торрент бесплатно

    Опубликовал: Админ | Дата: 14-06-2016, 13:57 | Просмотров: 51



    Снималось в: СССР
    Создали в: Ленфильм
    Категория жанра: драма, история, биография
    Создали в: 1955
    Время просмотра: 01: 38: 54
    Перевод текста: Не требуется
    Субтитры подготовлены: нет
    Оригинальная аудиодорожка: русский
    Главный режиссер: Александр Иванов

    Актеры

    Борис Ливанов, Аста Виханди, Антс Эскола, Герман Хованов, Янис Осис, Владимир Сошальский, Алексей Консовский, Альфред Ребане, Владимир Белокуров...
    Полный список актёров
    Описание:
    Ломоносов обнял все отрасли просвещения. Жажда науки была сильнейшей страстью сей души, исполненной страстей. Историк, ритор, механик, химик, минералог, художник и стихотворец он все испытал и все проник.
    Этими словами А. С. Пушкина начинается фильм о крестьянском сыне Михаиле Васильевиче Ломоносове — отце русской науки, достигшем два века назад вершин мировой культуры и во многом опередившем современную ему науку на целые столетия.
    Фильм раскрывает наиболее значительные страницы из жизни великого русского ученого, начиная с 1741 года, когда Михаил Васильевич возвратился в Петербург из заграничной поездки, и кончая 1755 голом — годом основания Ломоносовым Московского университета.
    Перед зрителем оживает Россия после петровских реформ, всколыхнувших старинный уклад русского государства и вместе с тем наводнивших страну иноземными проходимцами, которые посыпались в Россию, как сор из дырявого мешка. В петербургской Академии наук, куда возвратился Ломоносов, все дела вершила засевшая в ней группа немецких лжеученых во главе о Шумахером и с Таубертом. С ними в борьбу за честь русской науки вступает ученый.
    Ломоносов был не только выдающимся ученым, но и замечательным поэтом. Императрица Елизавета и ее приближенные не понимали значения научных работ Ломоносова, однако им нравились его звучные оды. Успех Ломоносова при дворе как поэта помог ему осуществить заветную мечту — построить первую в России научную химическую лабораторию. Интересы Родины и интересы развития ее науки и культуры были для Ломоносова неразделимы, отсюда единство теории и живой практики во “всей его многогранной деятельности: в одной и той же химической лаборатории он открывал великий закон сохранения материи и энергии и опробовал образцы руд для отечественной промышленности.
    Но как бы гениально не был одарен Ломоносов, ученый понимал, что он один всего не сделает. Настал момент, когда Ломоносов ощутил необходимость позаботиться о будущем русской науки и культуры, расцвет которых он видел в просвещении народных масс, в подготовке ученых из среды русского народа. Великий ученый ясно сознавал: если он добьется основания народного университета, дело его жизни будет упрочено. Это понимали и многочисленные в враги Ломоносова, от санкт-петербургского архиепископа до Тауберта, который заявил: Разве нам десять Ломоносовых надобно — и один нам в тягость!. Они отлично знали, что ученый хлопочет не только об открытии университета, но и о свободном доступе в него людей из простых сословий.
    Борьба за создание такого университета завершилась победой пламенного патриота: в 1755 году в Москве был открыт Университет, основанный Михаилом Васильевичем Ломоносовым — великим сыном русского народа, высоко поднявшим знамя передовой отечественной науки.



    Источник: DVD5 R5
    Качество фильма видео: DVDRip
    Тип видео видео: AVI
    Информация о видео: 576x432 (4: 3), 25 fps, XviD ~ 916 kbps avg, 0.147 bit/pixel
    Информация о звуке: 48 kHz, MP3 2.0, 128 kbps
    Раздача от:
    MediaInfo

    Общее
    Полное имя : Mihaylo.Lomonosov.1955.DVDRip-745_New-team_by_AVP_Studio.avi
    Формат : AVI
    Формат/Информация : Audio Video Interleave
    Размер файла : 746 Мбайт
    Продолжительность : 1 ч. 38 м.
    Общий поток : 1054 Кбит/сек
    Программа кодирования : VirtualDubMod 1.5.10.3 | www.virtualdub-fr.org || (build 2550/release)
    Библиотека кодирования : VirtualDubMod build 2550/release
    Видео
    Идентификатор : 0
    Формат : MPEG-4 Visual
    Профиль формата : Advanced Simple@L5
    Параметр BVOP формата : 1
    Параметр QPel формата : Нет
    Параметр GMC формата : Без точки перехода
    Параметр матрицы формата : Выборочная
    Идентификатор кодека : XVID
    Идентификатор кодека/Подсказка : XviD
    Продолжительность : 1 ч. 38 м.
    Битрейт : 916 Кбит/сек
    Ширина : 576 пикселей
    Высота : 432 пикселя
    Соотношение сторон : 4: 3
    Частота кадров : 25, 000 кадров/сек
    Цветовое пространство : YUV
    Субдискретизация насыщенности : 4: 2: 0
    Битовая глубина : 8 бит
    Тип развёртки : Прогрессивная
    Метод сжатия : С потерями
    Бит/(Пиксели*Кадры) : 0.147
    Размер потока : 648 Мбайт (87%)
    Библиотека кодирования : XviD 1.2.1 (UTC 2008-12-04)
    Аудио
    Идентификатор : 1
    Формат : MPEG Audio
    Версия формата : Version 1
    Профиль формата : Layer 3
    Идентификатор кодека : 55
    Идентификатор кодека/Подсказка : MP3
    Продолжительность : 1 ч. 38 м.
    Вид битрейта : Постоянный
    Битрейт : 128 Кбит/сек
    Каналы : 2 канала
    Частота : 48, 0 КГц
    Метод сжатия : С потерями
    Размер потока : 90, 5 Мбайт (12%)
    Выравнивание : Соединение по промежуткам
    Продолжительность промежутка : 40 мс. (1, 00 видеокадр)
    Время предзагрузки промежутка : 504 мс.
    Библиотека кодирования : LAME3.99r
    Залил: AVPStudio

    Онлайн видео Михайло Ломоносов (1955) DVDRip от New


    Размер скачиваемого торрента: 745.76 MB (781985792 Bytes)


    Михайло Ломоносов (1955) DVDRip от New-Team
    загрузка...
    Рейтинг →
     (голосов: 1, оценка 5/5, голосовать можно 1 раз )

    Другие торренты по теме:

  • Михайло Ломоносов / 1955 / РУ / DVD-5 скачать торрент бесплатно


    • Комментарии (0):

      Информация

      Информация

        Посетители, находящиеся в группе Гости, не могут оставлять комментарии в данной новости.

        ↓ Меню



        ↓ Опрос

        А Вы добавили сайт в закладки?
        Да
        Не


        Top 10 за неделю (Фильмы)