.
Авторизация | Регистрация
Хочешь лучшие торренты? Добавь свой email!
Добавить
» » Эйнштейн и Эддингтон / Einstein and Eddington (2008) HDTV 1080i | P торрент скачать бесплатно




    Эйнштейн и Эддингтон / Einstein and Eddington (2008) HDTV 1080i | P торрент скачать бесплатно

    Опубликовал: Админ | Дата: 14-06-2016, 13:57 | Просмотров: 62



    Детально о кино
    Русское название: Эйнштейн и Эддингтон
    Русское название в мировом прокате: Einstein and Eddington
    Создали в: 2008
    Категория жанра: драма, биография
    Главный режиссер: Филип Мартин/Philip Martin

    Актеры
    Дэвид Теннант/David Tennant (Артур Эддингтон), Энди Серкис/Andy Serkis (Альберт Эйнштейн), Ребекка Холл/Rebecca Hall (Уинни Эддингтон), Патрик Кеннеди/Patrick Kennedy (Уильям Марстон), Джоди Мей/Jodhi May (Эльза Эйнштейн), Джим Броудбент/Jim Broadbent (сэр Оливер Лодж), Дональд Самптер/Donald Sumpter (Макс Планк), Энтон Лессер/Anton Lesser (Фриц Габер).

    Сюжет фильма

    Весной 1914 года Европа находится на пороге войны и никто еще не слышал о немецком физике Альберте Эйнштейне. Тем временем британский астроном Артур Эддингтон осознает, что теории Эйнштейна могут открыть новые пути к пониманию времени и пространства. Несмотря на угрозу быть обвиненными в измене, двое мужчин начинают переписку. Затмение в Африке дает шанс доказать теории Эйнштейна, и Эддингтон отправляется в путешествие, которое навсегда изменит понимание Вселенной.

    Снималось в: Великобритания, США
    Киностудия: Company Television Productions, HBO Films, Pioneer Pictures
    Время просмотра: 01: 29: 28.920
    Перевод текста: Профессиональный (многоголосый закадровый)студия Даб Лаб по заказу AmediaTV

    Файл
    Кодек для видео: h.264
    Качество фильма: HDTV 1080iAmedia HIT
    Информация о видео: 1920x1080 (16: 9), 25.000 fps, AVC, ~6677 Kbps, 0.129 bits/pixel
    Информация о звуке:
    Русский, 48.0 KHz, AC3, 2 ch, 192 Kbps
    Английский, 48.0 KHz, AC3, 2 ch, 192 Kbps
    Субтитры:
    Английские, SRT(UTF-8)
    Русские, SRT(UTF-8)(на основе субтитров jane_d)
    Все субтитры таймированы по речи.
    MI
    Общее
    Уникальный идентификатор : 229932676542374706393777244873377294560 (0xACFB6C35B6B6AFE2B9DAE5F978E9A8E0)
    Полное имя : E: FILMSEinshtein_i_Eddington.2008.HDTV1080i.mkv
    Формат : Matroska
    Версия формата : Version 4/Version 2
    Размер файла : 4, 50 Гбайт
    Продолжительность : 1 ч. 29 м.
    Общий поток : 7204 Кбит/сек
    Дата кодирования : UTC 2016-06-12 21: 18: 01
    Программа кодирования : mkvmerge v9.2.0 (;Photograph;) 64bit
    Библиотека кодирования : libebml v1.3.3 + libmatroska v1.4.4
    Видео
    Идентификатор : 1
    Формат : AVC
    Формат/Информация : Advanced Video Codec
    Профиль формата : High@L4
    Параметр CABAC формата : Да
    Параметр ReFrames формата : 4 кадра
    Идентификатор кодека : V_MPEG4/ISO/AVC
    Продолжительность : 1 ч. 29 м.
    Битрейт : 6818 Кбит/сек
    Ширина : 1920 пикселей
    Высота : 1080 пикселей
    Соотношение сторон : 16: 9
    Режим частоты кадров : Постоянный
    Частота кадров : 25, 000 кадров/сек
    Стандарт вещания : Component
    Цветовое пространство : YUV
    Субдискретизация насыщенности : 4: 2: 0
    Битовая глубина : 8 бит
    Тип развёртки : MBAFF
    Метод сохранения типа развёртки : Чередующиеся поля
    Порядок развёртки : Верхнее поле первое
    Бит/(Пиксели*Кадры) : 0.132
    Размер потока : 4, 26 Гбайт (95%)
    Default : Нет
    Forced : Нет
    Цветовой диапазон : Limited
    Основные цвета : BT.709
    Характеристики трансфера : BT.709
    Коэффициенты матрицы : BT.709
    Аудио #1
    Идентификатор : 2
    Формат : AC-3
    Формат/Информация : Audio Coding 3
    Расширение режима : CM (complete main)
    Параметр Endianness формата : Big
    Идентификатор кодека : A_AC3
    Продолжительность : 1 ч. 29 м.
    Вид битрейта : Постоянный
    Битрейт : 192 Кбит/сек
    Каналы : 2 канала
    Расположение каналов : Front: L R
    Частота : 48, 0 КГц
    Частота кадров : 31, 250 кадров/сек (1536 spf)
    Метод сжатия : С потерями
    Размер потока : 123 Мбайт (3%)
    Язык : Russian
    Default : Да
    Forced : Нет
    Аудио #2
    Идентификатор : 3
    Формат : AC-3
    Формат/Информация : Audio Coding 3
    Расширение режима : CM (complete main)
    Параметр Endianness формата : Big
    Идентификатор кодека : A_AC3
    Продолжительность : 1 ч. 29 м.
    Вид битрейта : Постоянный
    Битрейт : 192 Кбит/сек
    Каналы : 2 канала
    Расположение каналов : Front: L R
    Частота : 48, 0 КГц
    Частота кадров : 31, 250 кадров/сек (1536 spf)
    Метод сжатия : С потерями
    Размер потока : 123 Мбайт (3%)
    Язык : English
    Default : Нет
    Forced : Нет
    Текст #1
    Идентификатор : 4
    Формат : UTF-8
    Идентификатор кодека : S_TEXT/UTF8
    Идентификатор кодека/Информация : UTF-8 Plain Text
    Продолжительность : 1 ч. 27 м.
    Битрейт : 46 бит/сек
    Count of elements : 693
    Размер потока : 29, 5 Кбайт (0%)
    Язык : English
    Default : Нет
    Forced : Нет
    Текст #2
    Идентификатор : 5
    Формат : UTF-8
    Идентификатор кодека : S_TEXT/UTF8
    Идентификатор кодека/Информация : UTF-8 Plain Text
    Продолжительность : 1 ч. 28 м.
    Битрейт : 79 бит/сек
    Count of elements : 694
    Размер потока : 51, 5 Кбайт (0%)
    Язык : Russian
    Default : Нет
    Forced : Нет

    Скриншоты

    Релиз подготовил: Temperest
    Залил: Temperest

    Онлайн видео Эйнштейн и Эддингтон


    Размер скачиваемого торрента: 4.50 GB (4834821863 Bytes)

    Эйнштейн и Эддингтон/Einstein and Eddington (2008) HDTV 1080i | P
    загрузка...
    Рейтинг →
     (голосов: 1, оценка 5/5, голосовать можно 1 раз )

    Другие торренты по теме:

  • Эйнштейн. Теория любви / Эйнштейн / Русская любовь Эйнштейна (2013) DVB от Files-x
  • Эйнштейн. Теория любви / Эйнштейн / Русская любовь Эйнштейна (2013) SATRip от Files-x
  • Эйнштейн. Теория любви (2013) DVD9 R5 от New Team | лицензия
  • Эйнштейн. Теория любви (2013) DVDRip-AVC от New Team | лицензия
  • Эйнштейн. Теория любви (2013) DVDRip от New Team | лицензия
  • Максим Гуреев - Альберт Эйнштейн. Теория всего (2017) FB2


    • Комментарии (0):

      Информация

      Информация

        Посетители, находящиеся в группе Гости, не могут оставлять комментарии в данной новости.

        ↓ Меню



        ↓ Опрос

        А Вы добавили сайт в закладки?
        Да
        Не


        Top 10 за месяц (Фильмы)